Королева пчел / The Queen Bee (Дин Сынь Сай / Ding Sin Saai) [1973, Гонконг, Триллер, DVDRip] VO

Ответить на тему
 
Автор Сообщение

user ®

Стаж: 11 лет

Сообщений: 15151

Пост Пост: #1 от 22-Ноя-2013 12:05

[Цитировать]

Королева пчел / The Queen Bee
Страна: Гонконг
Жанр: Триллер
Год выпуска: 1973
Продолжительность: 01:33:33
Перевод: Одноголосый закадровый (Виктор Береговых)
Cубтитры: нет
Режиссер: Дин Сынь Сай / Ding Sin Saai
В ролях: Мю Тинь, Лин Ям, Вон Юн, Кун Ён, Ван Дань, Пак Лам, Фон Хин
Описание: Молодая девушка по имени Сяо Йен устраивается на работу в богатый дом.Ее обязанность готовить еду для хозяина дома, которого никто не видел и который не покидает свою комнату и свой рабочий кабинет.Однажды Сяо Йен попадает в это запретное место и видит,что в кресле-качалке сидит скелет,а после другой слуга
объясняет ей,что на самом деле хозяин умер три года назад,а хозяйка дома имитирует его жизнь,не в силах забыть мужа.И в это же время в доме появляется таинственный призрак...(В.Береговых)
Сэмпл: http://multi-up.com/925573
Качество видео: DVDRip
Формат видео: AVI
Видео: XviD, 720x320 (2.25:1), 23.976 fps, 1892 kbps avg, 0.342 bit/pixel
Аудио: AC3, 48.0 KHz, 192 Kbps, 2 channels

MediaInfo

General
Complete name : C:\Королева пчел\Королева пчел.avi
Format : AVI
Format/Info : Audio Video Interleave
File size : 1.37 GiB
Duration : 1h 33mn
Overall bit rate : 2 091 Kbps
Writing application : VirtualDubMod 1.5.4.1 (build 2178/release)
Writing library : VirtualDubMod build 2178/release
Video
ID : 0
Format : MPEG-4 Visual
Format profile : Simple@L3
Format settings, BVOP : No
Format settings, QPel : No
Format settings, GMC : No warppoints
Format settings, Matrix : Custom
Codec ID : XVID
Codec ID/Hint : XviD
Duration : 1h 33mn
Bit rate : 1 892 Kbps
Width : 720 pixels
Height : 320 pixels
Display aspect ratio : 2.25:1
Frame rate : 23.976 fps
Resolution : 24 bits
Colorimetry : 4:2:0
Scan type : Progressive
Bits/(Pixel*Frame) : 0.342
Stream size : 1.24 GiB (90%)
Writing library : XviD 1.0.1 (UTC 2004-06-05)
Audio
ID : 1
Format : AC-3
Format/Info : Audio Coding 3
Codec ID : 2000
Duration : 1h 33mn
Bit rate mode : Constant
Bit rate : 192 Kbps
Channel(s) : 2 channels
Channel positions : L R
Sampling rate : 48.0 KHz
Stream size : 129 MiB (9%)
Alignment : Split accross interleaves
Interleave, duration : 96 ms (2.30 video frames)
Interleave, preload duration : 96 ms
Language : Russian

Скриншот c названием фильма

Скриншоты

Скачать

Скачать торрент! Королева пчел / The Queen Bee (Дин Сынь Сай / Ding Sin Saai) [1973, Гонконг, Триллер, DVDRip] VO

Как скачивать? · Что такое торрент? · Рейтинг и ограничения

Сайт не распространяет и не хранит электронные версии произведений, а лишь предоставляет доступ к создаваемому пользователями каталогу ссылок на торрент-файлы, которые содержат только списки хеш-сумм

[Профиль] [ЛС]
Показать сообщения:    
Ответить на тему

Текущее время: Сегодня 05:35

Часовой пояс: GMT + 4



Вы не можете начинать темы
Вы не можете отвечать на сообщения
Вы не можете редактировать свои сообщения
Вы не можете удалять свои сообщения
Вы не можете голосовать в опросах
Вы не можете прикреплять файлы к сообщениям
Вы не можете скачивать файлы