Кольцо огня / Ring Of Fire (Эллисон Андерс / Allison Anders) [2013, США, Биографический, Музыкальный, DVDRip] DVO (студия Elrom)

Ответить на тему
 
Автор Сообщение

user ®

Стаж: 7 лет 7 месяцев

Сообщений: 20008

Пост Пост: #1 от 22-Ноя-2013 12:05

[Цитировать]

Кольцо огня / Ring Of Fire
Страна: США
Жанр: Биографический, Музыкальный
Год выпуска: 2013
Продолжительность: 01:28:45
Перевод: Профессиональный (двухголосый закадровый) студия Elrom
Cубтитры: нет
Оригинальная аудиодорожка: нет
Режиссер: Эллисон Андерс / Allison Anders
В ролях: Джевел Килчер /Jewel Kilcher/, Мэтт Росс /Matt Ross/, Джон До /John Doe/, Франсэс Конрой /Frances Conroy/, Остин Стак /Austin Stack/, Мэри Стюарт Салливан /Mary Stewart Sullivan/, Леа Писолл /Leah Peasall/, Трэвис Смит /Travis Smith/, Мишель Кабашински /Michelle Kabashinski/
Описание: Это история о многолетнем романе между Джун Картер и ее третьим мужем, Джонни Кэшем. В 60-х годах у Джонни Кэша стала проявляться зависимость от наркотиков и алкоголя, в результате чего, в 1968 году распалась его семья. После развода с Вивиан, Джонни женился на Джун Картер — очаровательной певице из семьи исполнителей кантри Картеров, с которой он гастролировал в последнее время.
Доп. информация:
IMDB
Производство: Asylum Entertainment (США)
Sample
Качество видео: DVDrip (Ring.Of.Fire.2013.DVDRip.XviD-IGUANA.avi)
Формат видео: AVI
Видео: Xvid 624x352 23.98fps 891kbps
Аудио: MPEG Audio Layer 3 48000Hz stereo 192kbps [Rus]

MediaInfo

General
Complete name : P:\Ring Of Fire 2013 DVDRip XviD-IGUANA\Kolco.Ognya.2013.DVDrip.XviD.Rus_25KADR.avi
Format : AVI
Format/Info : Audio Video Interleave
File size : 694 MiB
Duration : 1h 28mn
Overall bit rate : 1 093 Kbps
Movie name : Kolco.Ognya.2013
Original source form/Distributed : Ring Of Fire 2013 DVDRip XviD-IGUANA.avi
Genre : Drama, Biography, Music
Copyright : 25KADR
Comment : DVO (NLS studio)
Video
ID : 0
Format : MPEG-4 Visual
Format profile : Advanced Simple@L5
Format settings, BVOP : Yes
Format settings, QPel : No
Format settings, GMC : No warppoints
Format settings, Matrix : Default (H.263)
Codec ID : XVID
Codec ID/Hint : XviD
Duration : 1h 28mn
Bit rate : 892 Kbps
Width : 624 pixels
Height : 352 pixels
Display aspect ratio : 16:9
Frame rate : 23.976 fps
Color space : YUV
Chroma subsampling : 4:2:0
Bit depth : 8 bits
Scan type : Progressive
Bits/(Pixel*Frame) : 0.169
Stream size : 566 MiB (82%)
Writing library : XviD 64
Audio
ID : 1
Format : MPEG Audio
Format version : Version 1
Format profile : Layer 3
Codec ID : 55
Codec ID/Hint : MP3
Duration : 1h 28mn
Bit rate mode : Constant
Bit rate : 192 Kbps
Channel(s) : 2 channels
Sampling rate : 48.0 KHz
Stream size : 122 MiB (18%)
Alignment : Aligned on interleaves
Interleave, duration : 42 ms (1.00 video frame)
Interleave, preload duration : 504 ms
Language : Russian

Скриншоты



Скачать

Скачать торрент!

Как скачивать? · Что такое торрент? · Рейтинг и ограничения

Сайт не распространяет и не хранит электронные версии произведений, а лишь предоставляет доступ к создаваемому пользователями каталогу ссылок на торрент-файлы, которые содержат только списки хеш-сумм

[Профиль] [ЛС]
Показать сообщения:    
Ответить на тему

Текущее время: Сегодня 11:44

Часовой пояс: GMT + 4



Вы не можете начинать темы
Вы не можете отвечать на сообщения
Вы не можете редактировать свои сообщения
Вы не можете удалять свои сообщения
Вы не можете голосовать в опросах
Вы не можете прикреплять файлы к сообщениям
Вы не можете скачивать файлы