Иллюзия обмана / Now you see me (Луи Летерье / Louis Leterrier) [2013, Франция, США, Триллер, детектив, криминальный роман, HDRip] Dub

Ответить на тему
 
Автор Сообщение

user ®

Стаж: 7 лет 7 месяцев

Сообщений: 20008

Пост Пост: #1 от 22-Ноя-2013 12:05

[Цитировать]

Иллюзия обмана / Now you see me
Страна: Франция, США
Жанр: Триллер, детектив, криминальный роман
Год выпуска: 2013
Продолжительность: 01:47:13
Перевод: Профессиональный (дублированный)
Cубтитры: нет
Режиссер: Луи Летерье / Louis Leterrier
В ролях: Марк Руффало, Джесси Айзенберг, Вуди Харрельсон, Айла Фишер, Дэйв Франко, Мелани Лоран, Морган Фриман, Майкл Кейн, Майкл Келли, Коммон
Описание: Команда лучших иллюзионистов мира проворачивает дерзкие ограбления прямо во время своих шоу, играя в кошки-мышки с агентами ФБР.
Сэмпл: http://www.sendspace.com/file/x8718l
Качество видео: HDRip
Формат видео: AVI
Видео: MPEG-4 Video (XVID), 720x304 (2.35:1), 23.976 fps, XviD, ~1406 kbps avg
Аудио: 48 kHz, AC-3, 6 ch, ~448.00 kbps avg

MediaInfo

Общее
Полное имя : C:\Users\user\Desktop\Раздачи\Иллюзия обмана\Now.You.See.Me.2013_HDRip.avi
Формат : AVI
Формат/Информация : Audio Video Interleave
Размер файла : 1,50 Гбайт
Продолжительность : 1 ч. 55 м.
Общий поток : 1863 Кбит/сек
Программа кодирования : VirtualDubMod 1.5.10.2 (build 2540/release)
Библиотека кодирования : VirtualDubMod build 2540/release
Видео
Идентификатор : 0
Формат : MPEG-4 Visual
Профиль формата : Advanced Simple@L5
Параметр BVOP формата : 1
Параметр QPel формата : Нет
Параметр GMC формата : Без точки перехода
Параметр матрицы формата : Выборочная
Идентификатор кодека : XVID
Идентификатор кодека/Подсказка : XviD
Продолжительность : 1 ч. 55 м.
Битрейт : 1406 Кбит/сек
Ширина : 720 пикселей
Высота : 304 пикселя
Соотношение сторон : 2,35:1
Частота кадров : 23,976 кадра/сек
Цветовое пространство : YUV
Субдискретизация насыщенности : 4:2:0
Битовая глубина : 8 бит
Тип развёртки : Прогрессивная
Метод сжатия : С потерями
Бит/(Пиксели*Кадры) : 0.268
Размер потока : 1,13 Гбайт (75%)
Библиотека кодирования : XviD 73
Аудио
Идентификатор : 1
Формат : AC-3
Формат/Информация : Audio Coding 3
Расширение режима : CM (complete main)
Параметр Endianness формата : Big
Идентификатор кодека : 2000
Продолжительность : 1 ч. 55 м.
Вид битрейта : Постоянный
Битрейт : 448 Кбит/сек
Каналы : 6 каналов
Расположение каналов : Front: L C R, Side: L R, LFE
Частота : 48,0 КГц
Битовая глубина : 16 бит
Метод сжатия : С потерями
Размер потока : 370 Мбайт (24%)
Выравнивание : Разделение по промежуткам
Продолжительность промежутка : 42 мс. (1,00 видеокадр)
Время предзагрузки промежутка : 500 мс.

Скриншот c названием фильма

Скриншоты

Данная раздача обсуждалась с модератором Lenape.
Скачать

Скачать торрент!

Как скачивать? · Что такое торрент? · Рейтинг и ограничения

Сайт не распространяет и не хранит электронные версии произведений, а лишь предоставляет доступ к создаваемому пользователями каталогу ссылок на торрент-файлы, которые содержат только списки хеш-сумм

[Профиль] [ЛС]
Показать сообщения:    
Ответить на тему

Текущее время: Сегодня 22:41

Часовой пояс: GMT + 4



Вы не можете начинать темы
Вы не можете отвечать на сообщения
Вы не можете редактировать свои сообщения
Вы не можете удалять свои сообщения
Вы не можете голосовать в опросах
Вы не можете прикреплять файлы к сообщениям
Вы не можете скачивать файлы