Сабрина / Sabrina (Сидни Поллак / Sydney Pollack) [1995, США, Комедия, мелодрама, HDTV 1080i] DVO (РТР) + MVO + MVO (ТВ Центр) + AVO (Горчаков) + Sub Rus + Original Eng

Ответить на тему
 
Автор Сообщение

user ®

Стаж: 7 лет 7 месяцев

Сообщений: 20008

Пост Пост: #1 от 21-Ноя-2013 23:25

[Цитировать]

Сабрина / Sabrina (1995) Страна: США
Жанр: Комедия, мелодрама
Год выпуска: 1995
Продолжительность: 02:07:09
Перевод 1: Профессиональный (двухголосый закадровый) РТР
Перевод 2: Профессиональный (многоголосый закадровый) MVO
Перевод 3: Профессиональный (многоголосый закадровый) ТВ Центр
Перевод 4: Авторский (одноголосый закадровый) Василий Горчаков
Cубтитры: русские
Оригинальная аудиодорожка: английская
Режиссер: Сидни Поллак / Sydney Pollack
В ролях: Харрисон Форд, Джулия Ормонд, Грег Киннер, Нэнси Маршанд, Джон Вуд, Ричард Кренна, Энджи Дикинсон, Лорен Холли, Дэна Айви, Мириам Колон
Описание: Сабрина - дочь водителя, выросла в имении богатой Нью-Йоркской семьи, у которой работает её отец. Когда девушка возвращается из Европы, у нее складываются романтические отношения с младшим сыном хозяев Дэвидом, которого она давно любит и из-за которого, собственно, и уехала из Америки. Однако Дэвид должен жениться на другой, чтобы укрепить семейный бизнес - многомиллионным контрактом , который должен подписать отец невесты. В связи с этим, старший брат Дэвида Лайнес, хочет разлучить Сабрину и Дэвида. Он начинает ухаживать за Сабриной и скоро понимает, что влюбился в нее по настоящему.
Сэмпл:
http://yadi.sk/d/ZRFx428jD3xJP

Качество видео: HDTV 1080i
Формат видео: MKV
Видео: MPEG2 1920x1080i 29.97fps (16:9) битрейт 12,7 Мбит/сек
Аудио 1: AC3 48,0 КГц 192 Кбит/сек 2 канала РТР
Аудио 2: AC3 48,0 КГц 192 Кбит/сек 2 канала MVO
Аудио 3: AC3 48,0 КГц 192 Кбит/сек 2 канала ТВ Центр
Аудио 4: FLAC 48,0 КГц 1553 Кбит/сек 2 канала Василий Горчаков "Must Have"
Аудио 5: AC3 48,0 КГц 448 Кбит/сек 6 каналов Eng
Формат субтитров: (SRT)

Отдельная благодарность

Огромная благодарность за редактирование и синхронизацию всех дорожек Exner
Отдельная благодарность Nekontroliruemij_devil за новую оцифровку видео кассеты с переводом Василия Горчакова
Ещё благодарю Katerina75 за предоставленный перевод РТР из собственной коллекции

MediaInfo

ормат : Matroska
Версия формата : Version 4 / Version 2
Размер файла : 13,6 Гбайт
Продолжительность : 2 ч. 7 м.
Режим общего битрейта : Переменный
Общий поток : 15,3 Мбит/сек
Название фильма : Sabrina (1995) by Gregsam
Дата кодирования : UTC 2013-11-20 21:20:52
Программа кодирования : mkvmerge v6.5.0 ('Isn't she lovely') built on Oct 20 2013 12:50:05
Библиотека кодирования : libebml v1.3.0 + libmatroska v1.4.1
Видео
Идентификатор : 1
Формат : MPEG Video
Версия формата : Version 2
Профиль формата : Main@High
Параметр BVOP формата : Нет
Параметр матрицы формата : Выборочная
Идентификатор кодека : V_MPEG2
Идентификатор кодека/Информация : MPEG 1 or 2 Video
Вид битрейта : Переменный
Максимальный битрейт : 18,0 Мбит/сек
Ширина : 1920 пикселей
Высота : 1080 пикселей
Соотношение сторон : 16:9
Режим частоты кадров : Переменный
Частота кадров в оригинале : 29,970 кадров/сек
Цветовое пространство : YUV
Субдискретизация насыщенности : 4:2:0
Битовая глубина : 8 бит
Тип развёртки : Чересстрочная
Порядок развёртки : Верхнее поле первое
Метод сжатия : С потерями
Временной код первого кадра : 00:00:00;00
Оригинал временного кода : Group of pictures header
Default : Да
Forced : Нет
Аудио #1
Идентификатор : 2
Формат : AC-3
Формат/Информация : Audio Coding 3
Расширение режима : CM (complete main)
Параметр Endianness формата : Big
Идентификатор кодека : A_AC3
Продолжительность : 2 ч. 7 м.
Вид битрейта : Постоянный
Битрейт : 192 Кбит/сек
Каналы : 2 канала
Расположение каналов : Front: L R
Частота : 48,0 КГц
Битовая глубина : 16 бит
Метод сжатия : С потерями
Размер потока : 175 Мбайт (1%)
Заголовок : PTP
Язык : Russian
Default : Да
Forced : Нет
Аудио #2
Идентификатор : 3
Формат : AC-3
Формат/Информация : Audio Coding 3
Расширение режима : CM (complete main)
Параметр Endianness формата : Big
Идентификатор кодека : A_AC3
Продолжительность : 2 ч. 7 м.
Вид битрейта : Постоянный
Битрейт : 192 Кбит/сек
Каналы : 2 канала
Расположение каналов : Front: L R
Частота : 48,0 КГц
Битовая глубина : 16 бит
Метод сжатия : С потерями
Размер потока : 175 Мбайт (1%)
Заголовок : MVO
Язык : Russian
Default : Нет
Forced : Нет
Аудио #3
Идентификатор : 4
Формат : AC-3
Формат/Информация : Audio Coding 3
Расширение режима : CM (complete main)
Параметр Endianness формата : Big
Идентификатор кодека : A_AC3
Продолжительность : 2 ч. 7 м.
Вид битрейта : Постоянный
Битрейт : 192 Кбит/сек
Каналы : 2 канала
Расположение каналов : Front: L R
Частота : 48,0 КГц
Битовая глубина : 16 бит
Метод сжатия : С потерями
Размер потока : 175 Мбайт (1%)
Заголовок : TV Center
Язык : Russian
Default : Нет
Forced : Нет
Аудио #4
Идентификатор : 5
Формат : FLAC
Формат/Информация : Free Lossless Audio Codec
Идентификатор кодека : A_FLAC
Продолжительность : 2 ч. 7 м.
Вид битрейта : Переменный
Каналы : 2 канала
Частота : 48,0 КГц
Битовая глубина : 24 бит
Заголовок : Gorchakov Flac
Библиотека кодирования : libFLAC 1.2.1 (UTC 2007-09-17)
Язык : Russian
Default : Нет
Forced : Нет
Аудио #5
Идентификатор : 6
Формат : AC-3
Формат/Информация : Audio Coding 3
Расширение режима : CM (complete main)
Параметр Endianness формата : Big
Идентификатор кодека : A_AC3
Продолжительность : 2 ч. 7 м.
Вид битрейта : Постоянный
Битрейт : 448 Кбит/сек
Каналы : 6 каналов
Расположение каналов : Front: L C R, Side: L R, LFE
Частота : 48,0 КГц
Битовая глубина : 16 бит
Метод сжатия : С потерями
Размер потока : 407 Мбайт (3%)
Заголовок : Eng AC3 5.1
Язык : English
Default : Нет
Forced : Нет
Текст
Идентификатор : 7
Формат : UTF-8
Идентификатор кодека : S_TEXT/UTF8
Идентификатор кодека/Информация : UTF-8 Plain Text
Язык : Russian
Default : Нет
Forced : Нет

Скриншот c названием фильма

Скриншоты

Скорость не большая 100 Кб/с так что набираемся терпения !
Скачать

Скачать торрент!

Как скачивать? · Что такое торрент? · Рейтинг и ограничения

Сайт не распространяет и не хранит электронные версии произведений, а лишь предоставляет доступ к создаваемому пользователями каталогу ссылок на торрент-файлы, которые содержат только списки хеш-сумм

[Профиль] [ЛС]

schaine

Стаж: 1 год 5 месяцев

Сообщений: 1

Пост Пост: #2 от 24-Июн-2015 00:34 (спустя 1 год 7 месяцев)

[Цитировать]

как качать""" блин
[Профиль] [ЛС]
Показать сообщения:    
Ответить на тему

Текущее время: Сегодня 07:51

Часовой пояс: GMT + 4



Вы не можете начинать темы
Вы не можете отвечать на сообщения
Вы не можете редактировать свои сообщения
Вы не можете удалять свои сообщения
Вы не можете голосовать в опросах
Вы не можете прикреплять файлы к сообщениям
Вы не можете скачивать файлы