Клиент / The Client (Джоэл Шумахер / Joel Schumacher) [1994, США, триллер, драма, криминал, детектив, BDRip 720p] 2х DVO + 2х AVO + Sub Rus, Eng + Original Eng

Ответить на тему
 
Автор Сообщение

user ®

Стаж: 7 лет 7 месяцев

Сообщений: 20008

Пост Пост: #1 от 21-Ноя-2013 23:25

[Цитировать]

Клиент / The Client Страна: США
Студия: Regency Enterprises, Warner Bros. Pictures, Alcor Films
Жанр: триллер, драма, криминал, детектив
Год выпуска: 1994
Продолжительность: 02:00:45
Перевод 1: Профессиональный (двухголосый закадровый) [НТВ+, HDTV - 2008, текст читают Ольга Плетнёва и Александр Белый]
Перевод 2: Профессиональный (двухголосый закадровый) [DVD R5 - 2000 "Twister", VHS - 2001 "Гемини"]
Перевод 3: Авторский (одноголосый закадровый) [А.Гаврилов - DVD.NTSC]
Перевод 4: Авторский (одноголосый закадровый) [В.Горчаков - DVD.NTSC]
Cубтитры: русские, английские (SDH)
Оригинальная аудиодорожка: английский
Режиссер: Джоэл Шумахер / Joel Schumacher
В ролях: Сьюзен Сарандон, Томми Ли Джонс, Брэд Ренфро, Мэри-Луиз Паркер, Энтони ЛаПалья, Дж.Т. Уолш, Уилл Пэттон, Энтони Эдвардс, Уильям Х. Мэйси, Брэдли Уитфорд, Энтони Хилд, Ким Коутс, Миколе Миркурио, Эми Хэтэуэй, Рон Дин, Уильям Ричерт
Описание: 11-летний Марк невольно становится свидетелем самоубийства адвоката, работающего на мафию. Преступники готовы избавиться от него любым способом. А представители закона озабочены только его показаниями и не гарантируют Марку и его семье полноценной защиты.
Он самостоятельно решил обратиться за помощью к адвокату Рэджи Лав, чтобы сохранить свою жизнь и добиться справедливости.
Доп. информация:

Тип релиза: BDRip 720p (Исходник: BD-Remux MPEG-4 AVC / 1080p / 30,0 Mbps / 23,976 fps / 16:9 / High Profile 4.1)
Контейнер: MKV
Видео: MPEG-4 AVC Video, 1280x536 / 2,40:1 (16:9) / 5680 kbps / 23,976 fps / High@L4.1 / 2pass
Аудио 1: Russian: AC3, 2.0 ch, 224 kbps, 48 kHz | двухголосый [НТВ+]
Аудио 2: Russian: AC3, 2.0 ch, 192 kbps, 48 kHz | двухголосый [DVD R5]
Аудио 3: Russian: AC3, 2.0 ch, 192 kbps, 48 kHz | одноголосый [Гаврилов]
Аудио 4: Russian: AC3, 2.0 ch, 192 kbps, 48 kHz | одноголосый [Горчаков]
Аудио 5: English: DTS, 2.0 ch, 24-bit, 1509 kbps, 48 kHz
Формат субтитров: softsub (SRT)
Главы:

х264 Log

x264 [info]: frame I:1566 Avg QP:14.14 size:100775
x264 [info]: frame P:34243 Avg QP:16.19 size: 47688
x264 [info]: frame B:137920 Avg QP:17.50 size: 24310
x264 [info]: consecutive B-frames: 1.9% 2.2% 4.9% 17.7% 13.6% 35.1% 8.9% 7.1% 2.7% 1.8% 1.2% 1.6% 1.3%

MediaInfo

Общее
Уникальный идентификатор : 173186770130659417923376504219230639570 (0x824A8F041F07410BBB7549EF9ED995D2)
Полное имя : Клиент 1994.BDRip.720p.2хПД.2хЛО.Eng.mkv
Формат : Matroska
Версия формата : Version 4 / Version 2
Размер файла : 6,74 Гбайт
Продолжительность : 2 ч. 0 м.
Общий поток : 7988 Кбит/сек
Название фильма : The Client (1994)
Дата кодирования : UTC 2013-11-21 10:34:57
Программа кодирования : mkvmerge v6.5.0 ('Isn't she lovely') built on Oct 20 2013 12:50:05
Библиотека кодирования : libebml v1.3.0 + libmatroska v1.4.1
Видео
Идентификатор : 1
Формат : AVC
Формат/Информация : Advanced Video Codec
Профиль формата : High@L4.1
Параметр CABAC формата : Да
Параметр ReFrames формата : 12 кадров
Идентификатор кодека : V_MPEG4/ISO/AVC
Продолжительность : 2 ч. 0 м.
Битрейт : 5680 Кбит/сек
Ширина : 1280 пикселей
Высота : 536 пикселей
Соотношение сторон : 2,40:1
Режим частоты кадров : Постоянный
Частота кадров : 23,976 кадра/сек
Цветовое пространство : YUV
Субдискретизация насыщенности : 4:2:0
Битовая глубина : 8 бит
Тип развёртки : Прогрессивная
Бит/(Пиксели*Кадры) : 0.345
Размер потока : 4,66 Гбайт (69%)
Библиотека кодирования : x264 core 133 r2334 a3ac64b
Настройки программы : cabac=1 / ref=12 / deblock=1:-3:-3 / analyse=0x3:0x133 / me=umh / subme=10 / psy=1 / psy_rd=1.00:0.00 / mixed_ref=1 / me_range=32 / chroma_me=1 / trellis=2 / 8x8dct=1 / cqm=0 / deadzone=21,11 / fast_pskip=0 / chroma_qp_offset=-2 / threads=6 / lookahead_threads=1 / sliced_threads=0 / nr=0 / decimate=1 / interlaced=0 / bluray_compat=0 / constrained_intra=0 / bframes=12 / b_pyramid=2 / b_adapt=2 / b_bias=0 / direct=3 / weightb=1 / open_gop=0 / weightp=2 / keyint=240 / keyint_min=23 / scenecut=40 / intra_refresh=0 / rc_lookahead=60 / rc=2pass / mbtree=0 / bitrate=5680 / ratetol=1.0 / qcomp=0.60 / qpmin=0 / qpmax=56 / qpstep=4 / cplxblur=20.0 / qblur=0.5 / vbv_maxrate=50000 / vbv_bufsize=62500 / nal_hrd=none / ip_ratio=1.30 / pb_ratio=1.20 / aq=1:0.80
Язык : English
Default : Да
Forced : Нет
Аудио #1
Идентификатор : 2
Формат : AC-3
Формат/Информация : Audio Coding 3
Расширение режима : CM (complete main)
Параметр Endianness формата : Big
Идентификатор кодека : A_AC3
Продолжительность : 2 ч. 0 м.
Вид битрейта : Постоянный
Битрейт : 224 Кбит/сек
Каналы : 2 канала
Расположение каналов : Front: L R
Частота : 48,0 КГц
Битовая глубина : 16 бит
Метод сжатия : С потерями
Размер потока : 194 Мбайт (3%)
Заголовок : AC3 2.0ch 224kbps - двухголосый (НТВ+, HDTV - 2008, Ольга Плетнёва и Александр Белый)
Язык : Russian
Default : Да
Forced : Нет
Аудио #2
Идентификатор : 3
Формат : AC-3
Формат/Информация : Audio Coding 3
Расширение режима : CM (complete main)
Параметр Endianness формата : Big
Идентификатор кодека : A_AC3
Продолжительность : 2 ч. 0 м.
Вид битрейта : Постоянный
Битрейт : 192 Кбит/сек
Каналы : 2 канала
Расположение каналов : Front: L R
Частота : 48,0 КГц
Битовая глубина : 16 бит
Метод сжатия : С потерями
Размер потока : 166 Мбайт (2%)
Заголовок : AC3 2.0ch 192kbps - двухголосый (DVD R5 - 2000 "Twister", VHS - 2001 "Гемини")
Язык : Russian
Default : Нет
Forced : Нет
Аудио #3
Идентификатор : 4
Формат : AC-3
Формат/Информация : Audio Coding 3
Расширение режима : CM (complete main)
Параметр Endianness формата : Big
Идентификатор кодека : A_AC3
Продолжительность : 2 ч. 0 м.
Вид битрейта : Постоянный
Битрейт : 192 Кбит/сек
Каналы : 2 канала
Расположение каналов : Front: L R
Частота : 48,0 КГц
Битовая глубина : 16 бит
Метод сжатия : С потерями
Размер потока : 166 Мбайт (2%)
Заголовок : AC3 2.0ch 192kbps - одноголосый (Гаврилов - DVD.NTSC)
Язык : Russian
Default : Нет
Forced : Нет
Аудио #4
Идентификатор : 5
Формат : AC-3
Формат/Информация : Audio Coding 3
Расширение режима : CM (complete main)
Параметр Endianness формата : Big
Идентификатор кодека : A_AC3
Продолжительность : 2 ч. 0 м.
Вид битрейта : Постоянный
Битрейт : 192 Кбит/сек
Каналы : 2 канала
Расположение каналов : Front: L R
Частота : 48,0 КГц
Битовая глубина : 16 бит
Метод сжатия : С потерями
Размер потока : 166 Мбайт (2%)
Заголовок : AC3 2.0ch 192kbps - одноголосый (Горчаков - DVD.NTSC)
Язык : Russian
Default : Нет
Forced : Нет
Аудио #5
Идентификатор : 6
Формат : DTS
Формат/Информация : Digital Theater Systems
Режим : 16
Параметр Endianness формата : Big
Идентификатор кодека : A_DTS
Продолжительность : 2 ч. 0 м.
Вид битрейта : Постоянный
Битрейт : 1509 Кбит/сек
Каналы : 2 канала
Расположение каналов : Front: L R
Частота : 48,0 КГц
Битовая глубина : 24 бит
Метод сжатия : С потерями
Размер потока : 1,27 Гбайт (19%)
Заголовок : DTS 2.0ch 24-bit 1509kbps - original
Язык : English
Default : Нет
Forced : Нет
Текст #1
Идентификатор : 7
Формат : UTF-8
Идентификатор кодека : S_TEXT/UTF8
Идентификатор кодека/Информация : UTF-8 Plain Text
Язык : Russian
Default : Нет
Forced : Нет
Текст #2
Идентификатор : 8
Формат : UTF-8
Идентификатор кодека : S_TEXT/UTF8
Идентификатор кодека/Информация : UTF-8 Plain Text
Язык : English
Default : Нет
Forced : Нет
Меню
00:00:00.000 : en:00:00:00.000
00:12:13.107 : en:00:12:13.107
00:21:45.429 : en:00:21:45.429
00:30:44.551 : en:00:30:44.551
00:40:55.745 : en:00:40:55.745
00:52:59.426 : en:00:52:59.426
01:02:30.455 : en:01:02:30.455
01:11:58.648 : en:01:11:58.648
01:20:55.100 : en:01:20:55.100
01:31:56.094 : en:01:31:56.094
01:41:08.980 : en:01:41:08.980
01:50:49.017 : en:01:50:49.017
01:57:02.432 : en:01:57:02.432

-

Скриншот с названием фильма


-

Интересное

Экранизация произведения Джона Гришема «Клиент».
Картина имела финансовый успех, собрав 92 115 211 долларов в своей стране и ещё 25 500 000 долларов за рубежом.
Джон Гришэм, автор книги, настаивал, чтобы роль Марка Свэя исполнял не профессиональный актёр. Брэд Рэнфро обошёл на пробах тысячи претендентов, включая Маколея Калкина. В возрасте 25 лет Рэнфро скончался от передозировки героина.
За свою работу в фильме Сьюзан Сарандон в 1995 году награждена премией BAFTA за лучшую женскую роль, а также за лучшую женскую роль номинирована на премию «Оскар» и премию Гильдии актеров.
Скачать

Скачать торрент!

Как скачивать? · Что такое торрент? · Рейтинг и ограничения

Сайт не распространяет и не хранит электронные версии произведений, а лишь предоставляет доступ к создаваемому пользователями каталогу ссылок на торрент-файлы, которые содержат только списки хеш-сумм

[Профиль] [ЛС]
Показать сообщения:    
Ответить на тему

Текущее время: Сегодня 06:05

Часовой пояс: GMT + 4



Вы не можете начинать темы
Вы не можете отвечать на сообщения
Вы не можете редактировать свои сообщения
Вы не можете удалять свои сообщения
Вы не можете голосовать в опросах
Вы не можете прикреплять файлы к сообщениям
Вы не можете скачивать файлы