Дочь (Александр Касаткин, Наталья Назарова) [2012, Россия, драма, детектив, WEB-DL 720p]

Ответить на тему
 
Автор Сообщение

user ®

Стаж: 7 лет 7 месяцев

Сообщений: 20008

Пост Пост: #1 от 21-Ноя-2013 23:25

[Цитировать]

--Дочь-- Страна: Россия
Жанр: драма, детектив
Год выпуска: 2012
Продолжительность: 01:45:55-Язык: Русский
Cубтитры: нет-Режиссер: Александр Касаткин, Наталья Назарова-В ролях: Мария Смольникова, Олег Ткачёв, Игорь Мазепа, Владимир Мишуков, Яна Осипова, Мария Звонарева, Кирилл Назаров, Анастасия Имамова, Евгений Ткачук, Алена Кузнецова-Описание: Инна живет со своим папой и маленьким братом в небольшом провинциальном городе. Ее жизнь меняется, когда новая девочка - Маша приезжает в школу, в которой учится Инна. Между ними завязывается дружба. Но Маша становится жертвой серийного маньяка, который орудует в городке, убивая девочек 13-15 лет. Приехав на панихиду в церковь, Инна встречает сына священника - Илью, чья сестра тоже была убита.-Награды, номинации, фестивали:
Главный приз Общественного жюри газеты «Московский комсомолец» 10-го Московского фестиваля отечественного кино «Московская премьера» 2012 г.
На 28-м Международном Кинофестивале в Варшаве - приз ФИПРЕСИ.
Приз за лучший дебют на кинофестивале "СТАЛКЕР"
Лучший дебют "КИНОТАВР" 2012
Гранпри в Благовещенске на кинофестивале "Золотая осень"
Гранпри на кинофестивале "Спутник над Варшавой"
Приз FIPRESCI на международном фестивале в Таллине
Гранпри на международном фестивале "Лучезарный Ангел"
Приз за лучшую режиссуру и лучшую женскую роль на фестивале "Виват Россия!"-Тип релиза: WEB-DL 720p
Контейнер: MKV
Видео: x264, 960@1280x688, [16:9], 3976 kbps, 25 fps
Аудио: Russian: AC3, 6 ch, 48 kHz, 384 kbps-Релиз от: by sergey_n
Сохранены оригинальные чаптеры.
Исходный WEB-DL куплен в рамках сервиса "Копилка".-Сэмпл / ImDB / Кинопоиск-

MediaInfo

Общее
Уникальный идентификатор                 : 211825883939843328446108742044014940318 (0x9F5C2E68DD4A26D490ED951FD9E1109E)
Полное имя                               : Doch.2012.720p.WEB-DL.Rus.HDCLUB.mkv
Формат                                   : Matroska
Версия формата                           : Version 2
Размер файла                             : 3,23 Гбайт
Продолжительность                        : 1 ч. 45 м.
Общий поток                              : 4362 Кбит/сек
Название фильма                          : Doch (2012) - Release for HDCLUB
Дата кодирования                         : UTC 2013-11-20 20:30:53
Программа кодирования                    : mkvmerge v3.4.0 ('Rapunzel') built on May 15 2010 09:38:20
Библиотека кодирования                   : libebml v0.8.0 + libmatroska v0.9.0
Видео
Идентификатор                            : 1
Формат                                   : AVC
Формат/Информация                        : Advanced Video Codec
Профиль формата                          : Main@L3.1
Параметр CABAC формата                   : Нет
Параметр ReFrames формата                : 2 кадра
Идентификатор кодека                     : V_MPEG4/ISO/AVC
Продолжительность                        : 1 ч. 45 м.
Битрейт                                  : 3891 Кбит/сек
Ширина                                   : 960 пикселей
Высота                                   : 688 пикселей
Соотношение сторон                       : 1,85:1
Режим частоты кадров                     : Постоянный
Частота кадров                           : 25,000 кадров/сек
Цветовое пространство                    : YUV
Субдискретизация насыщенности            : 4:2:0
Битовая глубина                          : 8 бит
Тип развёртки                            : Прогрессивная
Бит/(Пиксели*Кадры)                      : 0.236
Размер потока                            : 2,88 Гбайт (89%)
Заголовок                                : Doch (2012) - Release for HDCLUB
Язык                                     : Russian
Default                                  : Да
Forced                                   : Нет
Основные цвета                           : BT.709
Характеристики трансфера                 : BT.709
Коэффициенты матрицы                     : BT.709
Аудио
Идентификатор                            : 2
Формат                                   : AC-3
Формат/Информация                        : Audio Coding 3
Расширение режима                        : CM (complete main)
Параметр Endianness формата              : Big
Идентификатор кодека                     : A_AC3
Продолжительность                        : 1 ч. 45 м.
Вид битрейта                             : Постоянный
Битрейт                                  : 384 Кбит/сек
Каналы                                   : 6 каналов
Расположение каналов                     : Front: L C R, Side: L R, LFE
Частота                                  : 48,0 КГц
Битовая глубина                          : 16 бит
Метод сжатия                             : С потерями
Размер потока                            : 291 Мбайт (9%)
Заголовок                                : AC3 5.1 @ 384 kbps
Язык                                     : Russian
Default                                  : Да
Forced                                   : Нет
Меню
00:00:00.000                             : Глава 1
00:09:28.000                             : Глава 2
00:17:57.000                             : Глава 3
00:27:10.000                             : Глава 4
00:39:51.000                             : Глава 5
00:48:28.000                             : Глава 6
00:58:29.000                             : Глава 7
01:09:01.000                             : Глава 8
01:18:08.000                             : Глава 9
01:26:47.000                             : Глава 10
01:35:01.000                             : Глава 11
01:43:14.000                             : Глава 12

Скриншоты


Скачать

Скачать торрент!

Как скачивать? · Что такое торрент? · Рейтинг и ограничения

Сайт не распространяет и не хранит электронные версии произведений, а лишь предоставляет доступ к создаваемому пользователями каталогу ссылок на торрент-файлы, которые содержат только списки хеш-сумм

[Профиль] [ЛС]
Показать сообщения:    
Ответить на тему

Текущее время: Сегодня 03:09

Часовой пояс: GMT + 4



Вы не можете начинать темы
Вы не можете отвечать на сообщения
Вы не можете редактировать свои сообщения
Вы не можете удалять свои сообщения
Вы не можете голосовать в опросах
Вы не можете прикреплять файлы к сообщениям
Вы не можете скачивать файлы