Росомаха: Бессмертный / The Wolverine [Extended Cut] (Джеймс Мэнголд / James Mangold) [2013, Австралия, США, Фантастика, Фэнтези, Боевик, Приключения, BDRip-AVC] Dub (CEE) + Original (English) + Subs (Rus, Eng, Ukr)

Ответить на тему
 
Автор Сообщение

user ®

Стаж: 7 лет 7 месяцев

Сообщений: 20008

Пост Пост: #1 от 21-Ноя-2013 20:15

[Цитировать]

Росомаха: Бессмертный / The Wolverine / [Extended Cut]«Уязвимый он еще опаснее»- Страна: Австралия , США
Жанр: Фантастика, Фэнтези, Боевик, Приключения
Год выпуска: 2013
Продолжительность: 02:18:05-Перевод: Профессиональный (полное дублирование, CEE)
Оригинальная аудиодорожка: Английский
Cубтитры: Русские (полные, форсированные), Украинские (полные), Английские (полные, форсированные) (*srt)-Режиссер: Джеймс Мэнголд / James Mangold-В ролях: Хью Джекман, Тао Окамото, Рила Фукусима, Светлана Ходченкова, Уилл Юн Ли, Харукико Яманоути, Хироюки Санада, Брайан Ти, Кен Ямамура, Фамке Янссен и др.-Описание:Новая глава приключений Росомахи развернётся в Японии, где Логану предстоит выяснить, что острее — когти Росомахи или меч Серебряного Самурая.-Релиз от -
Автор: AngelOfTrue-Качество видео: BDRip-AVC | The Wolverine (2013) [Extended Cut] Blu-ray EUR 1080p AVC DTS 5.1
Формат видео: MKV-Видео: 1124x466p (2,40:1), 23,976 fps, x264 ~2110 kbps avg, 0.168 bit/pixel
Аудио #1: AC3 Dolby Digital / 48 KHz / 448 kbps / 3/2 (L,C,R,l,r) + LFE ch| Dub (CEE)
Аудио #2: AC3 Dolby Digital / 48 KHz / 448 kbps / 3/2 (L,C,R,l,r) + LFE ch| Original (English)

-

x264 log

avs [info]: 1124x466p 1:1 @ 2997/125 fps (cfr)
x264 [warning]: --psnr used with psy on: results will be invalid!
x264 [warning]: --tune psnr should be used if attempting to benchmark psnr!
x264 [info]: using SAR=1/1
x264 [info]: using cpu capabilities: MMX2 SSE2Fast SSSE3 SSE4.2 AVX AVX2 FMA3 LZCNT BMI1 BMI2
x264 [info]: profile High, level 4.0
x264 [info]: frame I:1780 Avg QP:16.10 size: 68910 PSNR Mean Y:47.73 U:50.01 V:49.82 Avg:48.33 Global:47.53
x264 [info]: frame P:44565 Avg QP:19.15 size: 22556 PSNR Mean Y:46.27 U:49.16 V:48.90 Avg:46.97 Global:45.92
x264 [info]: frame B:152302 Avg QP:20.54 size: 6938 PSNR Mean Y:46.06 U:49.13 V:48.85 Avg:46.79 Global:45.66
x264 [info]: consecutive B-frames: 2.9% 3.5% 8.0% 19.2% 19.3% 36.0% 5.8% 1.7% 1.3% 1.4% 0.5% 0.5%
x264 [info]: mb I I16..4: 9.3% 67.3% 23.4%
x264 [info]: mb P I16..4: 1.4% 11.8% 2.4% P16..4: 30.9% 34.4% 10.6% 1.7% 0.2% skip: 6.6%
x264 [info]: mb B I16..4: 0.2% 1.4% 0.4% B16..8: 34.2% 18.9% 2.5% direct: 3.9% skip:38.4% L0:42.1% L1:45.2% BI:12.7%
x264 [info]: 8x8 transform intra:72.9% inter:61.8%
x264 [info]: direct mvs spatial:97.7% temporal:2.3%
x264 [info]: coded y,uvDC,uvAC intra: 79.1% 84.0% 62.8% inter: 18.0% 18.1% 9.1%
x264 [info]: i16 v,h,dc,p: 21% 17% 7% 55%
x264 [info]: i8 v,h,dc,ddl,ddr,vr,hd,vl,hu: 15% 11% 5% 8% 12% 12% 13% 11% 13%
x264 [info]: i4 v,h,dc,ddl,ddr,vr,hd,vl,hu: 27% 14% 5% 7% 10% 10% 10% 8% 9%
x264 [info]: i8c dc,h,v,p: 32% 27% 22% 18%
x264 [info]: Weighted P-Frames: Y:10.4% UV:6.7%
x264 [info]: ref P L0: 52.4% 7.4% 15.7% 7.3% 5.3% 4.0% 3.1% 1.8% 1.5% 1.2% 0.2% 0.0%
x264 [info]: ref B L0: 74.2% 13.3% 5.4% 2.6% 1.7% 1.3% 1.0% 0.4% 0.2%
x264 [info]: ref B L1: 92.1% 7.9%
x264 [info]: SSIM Mean Y:0.9853305 (18.336db)
x264 [info]: PSNR Mean Y:46.121 U:49.142 V:48.874 Avg:46.844 Global:45.727 kb/s:2109.34
x264 [total]: encoded 198647 frames, 8.41 fps, 2109.34 kb/s

-

MediaInfo

Формат : Matroska
Версия формата : Version 4 / Version 2
Размер файла : 2,90 Гбайт
Продолжительность : 2 ч. 18 м.
Общий поток : 3008 Кбит/сек
Дата кодирования : UTC 2013-11-21 15:15:03
Программа кодирования : mkvmerge v6.1.0 ('Old Devil') built on Mar 4 2013 09:10:42
Библиотека кодирования : libebml v1.3.0 + libmatroska v1.4.0
Видео
Идентификатор : 1
Формат : AVC
Формат/Информация : Advanced Video Codec
Профиль формата : High@L4.0
Параметр CABAC формата : Да
Параметр ReFrames формата : 10 кадров
Идентификатор кодека : V_MPEG4/ISO/AVC
Продолжительность : 2 ч. 18 м.
Битрейт : 2110 Кбит/сек
Ширина : 1124 пикселя
Высота : 466 пикселей
Соотношение сторон : 2,40:1
Режим частоты кадров : Постоянный
Частота кадров : 23,976 кадра/сек
Цветовое пространство : YUV
Субдискретизация насыщенности : 4:2:0
Битовая глубина : 8 бит
Тип развёртки : Прогрессивная
Бит/(Пиксели*Кадры) : 0.168
Размер потока : 1,98 Гбайт (68%)
Заголовок : Rosomaha.Bessmertnyi.2013.Extended.Cut.DUAL.BDRip-AVC.AC3.-HQ-ViDEO
Библиотека кодирования : x264 core 130 r2273 b3065e6
Настройки программы : cabac=1 / ref=10 / deblock=1:-3:-2 / analyse=0x3:0x133 / me=umh / subme=11 / psy=1 / psy_rd=1.00:0.10 / mixed_ref=1 / me_range=32 / chroma_me=1 / trellis=2 / 8x8dct=1 / cqm=0 / deadzone=21,11 / fast_pskip=0 / chroma_qp_offset=-3 / threads=6 / lookahead_threads=1 / sliced_threads=0 / nr=0 / decimate=0 / interlaced=0 / bluray_compat=0 / constrained_intra=0 / bframes=11 / b_pyramid=2 / b_adapt=2 / b_bias=0 / direct=3 / weightb=1 / open_gop=0 / weightp=2 / keyint=250 / keyint_min=23 / scenecut=40 / intra_refresh=0 / rc=2pass / mbtree=0 / bitrate=2110 / ratetol=1.0 / qcomp=0.65 / qpmin=10 / qpmax=51 / qpstep=4 / cplxblur=20.0 / qblur=0.5 / ip_ratio=1.35 / pb_ratio=1.25 / aq=2:1.00
Язык : Russian
Default : Да
Forced : Нет
Аудио #1
Идентификатор : 2
Формат : AC-3
Формат/Информация : Audio Coding 3
Расширение режима : CM (complete main)
Параметр Endianness формата : Big
Идентификатор кодека : A_AC3
Продолжительность : 2 ч. 18 м.
Вид битрейта : Постоянный
Битрейт : 448 Кбит/сек
Каналы : 6 каналов
Расположение каналов : Front: L C R, Side: L R, LFE
Частота : 48,0 КГц
Битовая глубина : 16 бит
Метод сжатия : С потерями
Размер потока : 442 Мбайт (15%)
Заголовок : Dub (CEE)
Язык : Russian
Default : Да
Forced : Нет
Аудио #2
Идентификатор : 3
Формат : AC-3
Формат/Информация : Audio Coding 3
Расширение режима : CM (complete main)
Параметр Endianness формата : Big
Идентификатор кодека : A_AC3
Продолжительность : 2 ч. 18 м.
Вид битрейта : Постоянный
Битрейт : 448 Кбит/сек
Каналы : 6 каналов
Расположение каналов : Front: L C R, Side: L R, LFE
Частота : 48,0 КГц
Битовая глубина : 16 бит
Метод сжатия : С потерями
Размер потока : 442 Мбайт (15%)
Заголовок : Original (English)
Язык : English
Default : Нет
Forced : Нет
Текст #1
Идентификатор : 4
Формат : UTF-8
Идентификатор кодека : S_TEXT/UTF8
Идентификатор кодека/Информация : UTF-8 Plain Text
Заголовок : Russian (for)
Язык : Russian
Default : Да
Forced : Да
Текст #2
Идентификатор : 5
Формат : UTF-8
Идентификатор кодека : S_TEXT/UTF8
Идентификатор кодека/Информация : UTF-8 Plain Text
Заголовок : Russian (full)
Язык : Russian
Default : Нет
Forced : Нет
Текст #3
Идентификатор : 6
Формат : UTF-8
Идентификатор кодека : S_TEXT/UTF8
Идентификатор кодека/Информация : UTF-8 Plain Text
Заголовок : Ukrainian (full)
Язык : Ukrainian
Default : Нет
Forced : Нет
Текст #4
Идентификатор : 7
Формат : UTF-8
Идентификатор кодека : S_TEXT/UTF8
Идентификатор кодека/Информация : UTF-8 Plain Text
Заголовок : English (for)
Язык : English
Default : Нет
Forced : Нет
Текст #5
Идентификатор : 8
Формат : UTF-8
Идентификатор кодека : S_TEXT/UTF8
Идентификатор кодека/Информация : UTF-8 Plain Text
Заголовок : English (full)
Язык : English
Default : Нет
Forced : Нет

-

Скриншоты



-Дополнительная информация: -Приятного вам просмотра!
Скачать

Скачать торрент!

Как скачивать? · Что такое торрент? · Рейтинг и ограничения

Сайт не распространяет и не хранит электронные версии произведений, а лишь предоставляет доступ к создаваемому пользователями каталогу ссылок на торрент-файлы, которые содержат только списки хеш-сумм

[Профиль] [ЛС]
Показать сообщения:    
Ответить на тему

Текущее время: Сегодня 02:19

Часовой пояс: GMT + 4



Вы не можете начинать темы
Вы не можете отвечать на сообщения
Вы не можете редактировать свои сообщения
Вы не можете удалять свои сообщения
Вы не можете голосовать в опросах
Вы не можете прикреплять файлы к сообщениям
Вы не можете скачивать файлы