Рататуй / Ratatouille (Брэд Бёрд, Ян Пинкава / Brad Bird, Jan Pinkava) [2007, фэнтези, комедия, семейный, BDRip] Dub + MVO + DVO + 2хAVO (Гаврилов, Королев) + Dub (Ukr) + Original (Eng) + Sub (Rus, Ukr, Eng)

Ответить на тему
 
Автор Сообщение

user ®

Стаж: 13 лет

Сообщений: 15041

Пост Пост: #1 от 21-Ноя-2013 14:20

[Цитировать]

РататуйRatatouille Год выпуска: 2007
Страна: США
Жанр: фэнтези, комедия, семейный
Продолжительность: 01:50:33
Перевод 1: профессиональный полное дублирование Blu-ray CEE
Перевод 2: профессиональный многоголосый, закадровый Superbit (отдельно)
Перевод 3: профессиональный двухголосый, закадровый П.Гланц и И.Королева (отдельно)
Перевод 4: авторский одноголосый, закадровый А. Гаврилов (отдельно)
Перевод 5: авторский одноголосый, закадровый В. Королев (отдельно)
Оригинал: английский (отдельно)
Cубтитры: русские форсированные, русские, украинские, английские внешние, softsub (SRT)-Режиссёр: Брэд Бёрд, Ян Пинкава / Brad Bird, Jan Pinkava-Роли озвучивали:
Пэттон Освальт (Сергей Бурунов), Иэн Холм (Владимир Зайцев), Лу Романо (Михаил Крылов), Брайан Деннехи (Сергей Гармаш), Питер Сон (Игорь Письменный), Питер О’Тул (Михаил Козаков), Брэд Гэррет (Дмитрий Назаров), Джанин Гарофало (Юлия Высоцкая), Уилл Арнетт, Джулиус Каллахан, Джеймс Римар, Джон Ратценбергер, Тедди Ньютон, Тони Фучиле, Джейк Стайнфелд, Стефани Ру-Описание:
Крыс Реми живет в подвале шикарного парижского ресторана и ежедневно рискует жизнью, добывая на кухне кусочки и крошки, оставшиеся от шедевров кулинарного искусства. Но гурману Реми этого мало — он втайне лелеет надежду стать заправским шеф-поваром.
Родственники Реми, привыкшие питаться отбросами, корят его за предательство традиций крысиного племени; работники ресторана стараются извести; и только поваренок Лингвини разделяет склонность Реми к несбыточным мечтам.
-
  • Аниматоры Pixar работали вместе с шеф-повар Томасом Келлером в его ресторане «Французская Прачечная» для того чтобы научиться искусству приготовления пищи. Келлер также озвучивает одного из посетителей ресторана «У Гюстафа»
  • Чтобы создать реалистичный вид навозной кучи, художники сфотографировали и исследовали реальные продукта гниения. Пятнадцать различных видов продукции, как например, яблоки, ягоды, бананы, грибы, апельсины, брокколи и салат были оставлены для гниения, их затем сфотографировали.
  • В ходе начального дизайна персонажей, скульптор создал девять глиняных скульптур Реми.
  • В мультфильме ВАЛЛ-И, также произведенном студией Pixar, присутствуют роботы-грызуны, обитающие на свалке внутри огромного космического корабля. Их название — REM-E.
  • В одной из сцен на улице на заднем плане участвует мим который также появлялся в роли Бом Вояжа в фильме Суперсемейка (2004), который также снял режиссер Брэд Берд.
  • У Реми прорисовано 1,15 миллиона волосков, в то время как у Колетт 115 тысяч волос. Средний статистический человек имеет около 110 тысяч волос.
  • Магазин с витриной мертвых крыс на самом деле существует. Он находится по улице 8 Halles в первом округе и существует с 1872 года.
  • Полковник Реми был псевдонимом Гилберта Рено, героя французского Сопротивления во время Второй мировой войны.
  • В трейлере французский официант, рассказывающий о сырах, озвучен режиссёром Брэдом Бёрдом.

-

Награды

Награды:
Оскар, 2008 год
Победитель: Лучший анимационный фильм
Номинации: Лучший сценарий, Лучший звук, Лучший монтаж звука, Лучший саундтрек
Золотой глобус, 2008 год
Победитель: Лучший анимационный фильм
Британская академия, 2008 год
Победитель: Лучший анимационный фильм
Сатурн, 2008 год
Победитель: Лучший сценарий, Лучший анимационный фильм
-IMDB: 8.0/10 (320 948 votes) Тор 250: 232
Кинопоиск: 8.082 (113 054)--Сэмпл--Качество видео: BDRip исходник Blu-ray disc 1080p/HDClub
Формат видео: AVI
Видео кодек: XviD
Аудио кодек: АС3
Видео: 720x304 (2.35:1), 23.976 fps, XviD, ~1430 kbps avg, 0.27 bit/pixel
Аудио 1: 48 kHz, AC3 Dolby Digital, 3/2 (L,C,R,l,r) + LFE ch, ~448.00 kbps avg дубляж-Аудио 2: 48 kHz, AC3 Dolby Digital, 3/2 (L,C,R,l,r) + LFE ch, ~448.00 kbps avg Superbit (отдельно)
Аудио 3: 48 kHz, AC3 Dolby Digital, 3/2 (L,C,R,l,r) + LFE ch, ~448.00 kbps avg П.Гланц и И.Королева (отдельно)
Аудио 4: 48 kHz, AC3 Dolby Digital, 3/2 (L,C,R,l,r) + LFE ch, ~448.00 kbps avg А. Гаврилов (отдельно)
Аудио 5: 48 kHz, AC3 Dolby Digital, 3/2 (L,C,R,l,r) + LFE ch, ~448.00 kbps avg В. Королев (отдельно)
Аудио 6: 48 kHz, AC3 Dolby Digital, 3/2 (L,C,R,l,r) + LFE ch, ~448.00 kbps avg украинский дубляж (отдельно)
Аудио 7: 48 kHz, AC3 Dolby Digital, 3/2 (L,C,R,l,r) + LFE ch, ~448.00 kbps avg оригинал (отдельно)

MI

General
Complete name : D:\Ratatuj.2007.BDRip\Ratatuj.2007.BDRip.avi
Format : AVI
Format/Info : Audio Video Interleave
File size : 1.46 GiB
Duration : 1h 50mn
Overall bit rate : 1 888 Kbps
Writing application : VirtualDubMod 1.5.10.3 (build 2550/release)
Writing library : VirtualDubMod build 2550/release
Video
ID : 0
Format : MPEG-4 Visual
Format profile : Advanced Simple@L5
Format settings, BVOP : 1
Format settings, QPel : No
Format settings, GMC : No warppoints
Format settings, Matrix : Custom
Codec ID : XVID
Codec ID/Hint : XviD
Duration : 1h 50mn
Bit rate : 1 431 Kbps
Width : 720 pixels
Height : 304 pixels
Display aspect ratio : 2.35:1
Frame rate : 23.976 fps
Color space : YUV
Chroma subsampling : 4:2:0
Bit depth : 8 bits
Scan type : Progressive
Compression mode : Lossy
Bits/(Pixel*Frame) : 0.273
Stream size : 1.10 GiB (76%)
Writing library : XviD 64
Audio
ID : 1
Format : AC-3
Format/Info : Audio Coding 3
Mode extension : CM (complete main)
Codec ID : 2000
Duration : 1h 50mn
Bit rate mode : Constant
Bit rate : 448 Kbps
Channel(s) : 6 channels
Channel positions : Front: L C R, Side: L R, LFE
Sampling rate : 48.0 KHz
Bit depth : 16 bits
Compression mode : Lossy
Stream size : 354 MiB (24%)
Alignment : Split accross interleaves
Interleave, duration : 42 ms (1.00 video frame)
Interleave, preload duration : 500 ms

Скриншоты



Размер файла без отдельных дополнительных дорог 1.46 ГБ
Скачать

Скачать торрент! Рататуй / Ratatouille (Брэд Бёрд, Ян Пинкава / Brad Bird, Jan Pinkava) [2007, фэнтези, комедия, семейный, BDRip] Dub + MVO + DVO + 2хAVO (Гаврилов, Королев) + Dub (Ukr) + Original (Eng) + Sub (Rus, Ukr, Eng)

Как скачивать? · Что такое торрент? · Рейтинг и ограничения

Сайт не распространяет и не хранит электронные версии произведений, а лишь предоставляет доступ к создаваемому пользователями каталогу ссылок на торрент-файлы, которые содержат только списки хеш-сумм

[Профиль] [ЛС]
Показать сообщения:    
Ответить на тему

Текущее время: Сегодня 20:56

Часовой пояс: GMT + 4



Вы не можете начинать темы
Вы не можете отвечать на сообщения
Вы не можете редактировать свои сообщения
Вы не можете удалять свои сообщения
Вы не можете голосовать в опросах
Вы не можете прикреплять файлы к сообщениям
Вы не можете скачивать файлы