Королева бензоколонки (Николай Литус, Алексей Мишурин) [1962, СССР, Комедия, HDTV 1080i]

Ответить на тему
 
Автор Сообщение

user ®

Стаж: 7 лет 7 месяцев

Сообщений: 20008

Пост Пост: #1 от 21-Ноя-2013 08:00

[Цитировать]

Королева бензоколонки
Страна: СССР
Студия: Киевская киностудия
Жанр: Комедия
Год выпуска: 1962
Продолжительность: 1:12:47
Перевод: Не требуется
Cубтитры: нет
Режиссер: Николай Литус, Алексей Мишурин
В ролях: Надежда Румянцева
Андрей Сова
Алексей Кожевников
Нонна Копержинская
Юрий Белов
Владимир Белокуров
Сергей Блинников
Виктор Мягкий
Евгения Опалова
Виктор Халатов
Описание: Мечта очаровательной девушки Людмилы Добрыйвечер — танцевать в балете на льду. Но… она не проходит по конкурсу, и ей приходится искать работу. После многих забавных приключений, она устраивается заправщицей на бензоколонку. Однако приключения на этом не заканчиваются…
Доп. информация: Реставрация от Первого канала. Релиз группа:

Тип релиза: HDTV 1080i
Контейнер: TS
Видео: AVC/H.264, 1920x1080 (16:9), 9825 Кбит/сек, 25.000 fps
Аудио: Mp2, 48000 Hz, 192 Кбит/сек, 2 ch

MediaInfo

General
ID : 0 (0x0)
Complete name : Королева бензоколонки.ts
Format : MPEG-TS
File size : 5.36 GiB
Duration : 1h 12mn
Overall bit rate mode : Variable
Overall bit rate : 10.5 Mbps
Video
ID : 305 (0x131)
Menu ID : 20105 (0x4E89)
Format : AVC
Format/Info : Advanced Video Codec
Format profile : High@L4.0
Format settings, CABAC : Yes
Format settings, ReFrames : 3 frames
Format settings, GOP : M=4, N=28
Codec ID : 27
Duration : 1h 12mn
Bit rate : 9 825 Kbps
Width : 1 920 pixels
Height : 1 080 pixels
Display aspect ratio : 16:9
Frame rate : 25.000 fps
Standard : Component
Color space : YUV
Chroma subsampling : 4:2:0
Bit depth : 8 bits
Scan type : Interlaced
Scan order : Top Field First
Bits/(Pixel*Frame) : 0.190
Stream size : 5.00 GiB (93%)
Color primaries : BT.709
Transfer characteristics : BT.709
Matrix coefficients : BT.709
Audio
ID : 405 (0x195)
Menu ID : 20105 (0x4E89)
Format : MPEG Audio
Format version : Version 1
Format profile : Layer 2
Codec ID : 4
Duration : 1h 12mn
Bit rate mode : Constant
Bit rate : 192 Kbps
Channel count : 2 channels
Sampling rate : 48.0 KHz
Compression mode : Lossy
Delay relative to video : 108ms
Stream size : 100.0 MiB (2%)
Language : Russian
Language, more info : Clean effects

Скриншоты

Скачать

Скачать торрент!

Как скачивать? · Что такое торрент? · Рейтинг и ограничения

Сайт не распространяет и не хранит электронные версии произведений, а лишь предоставляет доступ к создаваемому пользователями каталогу ссылок на торрент-файлы, которые содержат только списки хеш-сумм

[Профиль] [ЛС]
Показать сообщения:    
Ответить на тему

Текущее время: Сегодня 13:41

Часовой пояс: GMT + 4



Вы не можете начинать темы
Вы не можете отвечать на сообщения
Вы не можете редактировать свои сообщения
Вы не можете удалять свои сообщения
Вы не можете голосовать в опросах
Вы не можете прикреплять файлы к сообщениям
Вы не можете скачивать файлы