Лимб / Haunter (Винченцо Натали / Vincenzo Natali) [2013, Канада, Франция, Ужасы, триллер, детектив, BDRip-AVC] Dub [Лицензия]

Ответить на тему
 
Автор Сообщение

user ®

Стаж: 7 лет 7 месяцев

Сообщений: 20008

Пост Пост: #1 от 21-Ноя-2013 08:00

[Цитировать]

Лимб / Haunter-«Не выходи из дома. Не зови на помощь. Не пытайся вырваться»- Год выпуска: 2013
Страна: Канада, Франция
Студия: Canadian Audio-Visual Certification Office (CAVCO) | Canadian Film or Video Production Tax Credit (CPTC) | Copper Heart Entertainment
Слоган: «Не выходи из дома. Не зови на помощь. Не пытайся вырваться»
Жанр: Ужасы, триллер, детектив
Продолжительность: 01:36:53
Перевод: Профессиональный (дублированный) [Лицензия]
Субтитры: Отсутствуют
Оригинальная аудиодорожка: Отсутствует
Навигация по главам: Есть (13)-Режиссер: Винченцо Натали / Vincenzo Natali
Сценарий: Брайан Кинг, Мэттью Брайан Кинг
Продюсер: Стивен Хобан, Винсент Мэрэвэл, Винченцо Натали, ...
Оператор: Джон Джоффин
Художник: Питер Коско, Йен Холл, Патрик Антош
Монтаж: Майкл Доэрти-В ролях: Эбигейл Бреслин, Питер Аутербридж, Мишель Нолден, Стивен МакХэтти, Питер ДаКуна, Элинор Цихи, Дэвид Нолл, Саманта Вайнштейн, Дэвид Хьюлетт, Сара Мэннинен-Описание фильма:
Сюжет разворачивается вокруг юной героини Лизы. Дом в котором она живет окутан туманом, семья не выходит из дома и живет монотонной жизнью. Но в скором времени, в доме начинает происходить череда странных и даже пугающих, для героини, событий, которые приведут ее к разгадке страшной тайны.-Дата мировой премьеры: 9 марта 2013
Дата российской премьеры: 12 сентября 2013, «Вольга», «Премиум Фильм»
Дата выхода DVD релиза: 20 октября 2013, «CP Дистрибуция»
Дата выхода релиз на Blu-Ray: 24 октября 2013, «CP Дистрибуция»- -Качество видео: BDRip-AVC / Blu-Ray Remux 1080p
Формат видео: MKV
Видео: MPEG-4 AVC/H.264, 1056x594(16:9), 24,000 fps, 1709 Кbps, 0.114 bit/pixel
Аудио: 48 kHz, AC3 Dolby Digital, 3/2 (L,C,R,l,r) + LFE ch, 448.00 kbps-

Исходник

Общее
Уникальный идентификатор                 : 251622777077145713690149932965845457478 (0xBD4CC8BB3057526F9424FF71617EDA46)
Полное имя                               : D:\New folder\L1mb.2013.D.BD-Remux.mkv
Формат                                   : Matroska
Версия формата                           : Version 2
Размер файла                             : 12,8 Гбайт
Продолжительность                        : 1 ч. 36 м.
Режим общего битрейта                    : Переменный
Общий поток                              : 18,9 Мбит/сек
Дата кодирования                         : UTC 2013-10-29 17:32:53
Программа кодирования                    : mkvmerge v6.3.0 ('You can't stop me!') built on Jun 28 2013 20:09:41
Библиотека кодирования                   : libebml v1.3.0 + libmatroska v1.4.0
Видео
Идентификатор                            : 1
Формат                                   : AVC
Формат/Информация                        : Advanced Video Codec
Профиль формата                          : Main@L4.1
Параметр CABAC формата                   : Да
Параметр ReFrames формата                : 3 кадра
Идентификатор кодека                     : V_MPEG4/ISO/AVC
Продолжительность                        : 1 ч. 36 м.
Вид битрейта                             : Переменный
Максимальный битрейт                     : 25,0 Мбит/сек
Ширина                                   : 1920 пикселей
Высота                                   : 1080 пикселей
Соотношение сторон                       : 16:9
Режим частоты кадров                     : Постоянный
Частота кадров                           : 24,000 кадра/сек
Стандарт вещания                         : NTSC
Цветовое пространство                    : YUV
Субдискретизация насыщенности            : 4:2:0
Битовая глубина                          : 8 бит
Тип развёртки                            : Прогрессивная
Default                                  : Да
Forced                                   : Нет
Аудио #1
Идентификатор                            : 2
Формат                                   : DTS
Формат/Информация                        : Digital Theater Systems
Профиль формата                          : MA / Core
Режим                                    : 16
Параметр Endianness формата              : Big
Идентификатор кодека                     : A_DTS
Продолжительность                        : 1 ч. 36 м.
Вид битрейта                             : Переменный
Битрейт                                  : Неизвестно / 1509 Кбит/сек
Каналы                                   : 6 каналов
Расположение каналов                     : Front: L C R, Side: L R, LFE
Частота                                  : 48,0 КГц
Битовая глубина                          : 16 бит
Метод сжатия                             : Без потерь / Lossy
Язык                                     : Russian
Default                                  : Да
Forced                                   : Нет
Аудио #2
Идентификатор                            : 3
Формат                                   : AC-3
Формат/Информация                        : Audio Coding 3
Расширение режима                        : CM (complete main)
Параметр Endianness формата              : Big
Идентификатор кодека                     : A_AC3
Продолжительность                        : 1 ч. 36 м.
Вид битрейта                             : Постоянный
Битрейт                                  : 448 Кбит/сек
Каналы                                   : 6 каналов
Расположение каналов                     : Front: L C R, Side: L R, LFE
Частота                                  : 48,0 КГц
Битовая глубина                          : 16 бит
Метод сжатия                             : С потерями
Размер потока                            : 310 Мбайт (2%)
Язык                                     : Russian
Default                                  : Нет
Forced                                   : Нет
Меню
00:00:00.000                             : en:Chapter 1
00:08:37.583                             : en:Chapter 2
00:16:48.083                             : en:Chapter 3
00:24:49.083                             : en:Chapter 4
00:33:53.500                             : en:Chapter 5
00:43:45.208                             : en:Chapter 6
00:53:43.000                             : en:Chapter 7
01:03:11.375                             : en:Chapter 8
01:11:31.333                             : en:Chapter 9
01:19:01.208                             : en:Chapter 10
01:23:59.875                             : en:Chapter 11
01:31:29.708                             : en:Chapter 12
01:36:49.916                             : en:Chapter 13

MediaInfo

General
Unique ID                                : 207104623688845799809307627899016365561 (0x9BCEE64EB2BFC13789104B5D3942C5F9)
Complete name                            : C:\Новинки\Limb.2013.BDRip-AVC.1.45GB.mkv
Format                                   : Matroska
Format version                           : Version 4 / Version 2
File size                                : 1.46 GiB
Duration                                 : 1h 36mn
Overall bit rate                         : 2 157 Kbps
Movie name                               : Release for NNM-CLUB
Encoded date                             : UTC 2013-11-01 05:01:40
Writing application                      : mkvmerge v6.5.0 ('Isn't she lovely') built on Oct 20 2013 12:50:05
Writing library                          : libebml v1.3.0 + libmatroska v1.4.1
Attachment                               : Yes
Video
ID                                       : 1
Format                                   : AVC
Format/Info                              : Advanced Video Codec
Format profile                           : High@L4.1
Format settings, CABAC                   : Yes
Format settings, ReFrames                : 12 frames
Codec ID                                 : V_MPEG4/ISO/AVC
Duration                                 : 1h 36mn
Bit rate                                 : 1 709 Kbps
Width                                    : 1 056 pixels
Height                                   : 594 pixels
Display aspect ratio                     : 16:9
Frame rate mode                          : Constant
Frame rate                               : 24.000 fps
Color space                              : YUV
Chroma subsampling                       : 4:2:0
Bit depth                                : 8 bits
Scan type                                : Progressive
Bits/(Pixel*Frame)                       : 0.114
Stream size                              : 1.13 GiB (77%)
Title                                    : Лимб / Haunter (2013)
Writing library                          : x264 core 130 r2273 b3065e6
Encoding settings                        : cabac=1 / ref=12 / deblock=1:-2:-2 / analyse=0x3:0x133 / me=umh / subme=11 / psy=1 / psy_rd=1.05:0.00 / mixed_ref=1 / me_range=48 / chroma_me=1 / trellis=2 / 8x8dct=1 / cqm=0 / deadzone=21,11 / fast_pskip=0 / chroma_qp_offset=-2 / threads=9 / lookahead_threads=2 / sliced_threads=0 / nr=0 / decimate=0 / interlaced=0 / bluray_compat=0 / constrained_intra=0 / bframes=13 / b_pyramid=2 / b_adapt=2 / b_bias=0 / direct=3 / weightb=1 / open_gop=0 / weightp=2 / keyint=250 / keyint_min=23 / scenecut=40 / intra_refresh=0 / rc_lookahead=60 / rc=2pass / mbtree=0 / bitrate=1709 / ratetol=1.0 / qcomp=0.70 / qpmin=0 / qpmax=69 / qpstep=4 / cplxblur=20.0 / qblur=0.5 / vbv_maxrate=20000 / vbv_bufsize=25000 / nal_hrd=none / ip_ratio=1.35 / pb_ratio=1.25 / aq=1:0.70
Language                                 : English
Default                                  : Yes
Forced                                   : No
Audio
ID                                       : 2
Format                                   : AC-3
Format/Info                              : Audio Coding 3
Mode extension                           : CM (complete main)
Format settings, Endianness              : Big
Codec ID                                 : A_AC3
Duration                                 : 1h 36mn
Bit rate mode                            : Constant
Bit rate                                 : 448 Kbps
Channel count                            : 6 channels
Channel positions                        : Front: L C R, Side: L R, LFE
Sampling rate                            : 48.0 KHz
Bit depth                                : 16 bits
Compression mode                         : Lossy
Stream size                              : 310 MiB (21%)
Title                                    : Dub | DD 5.1 @ 448 kbps
Language                                 : Russian
Default                                  : Yes
Forced                                   : Yes
Menu
00:00:00.000                             : en:(01)00:00:00:000
00:08:37.583                             : en:(02)00:08:37:583
00:16:48.083                             : en:(03)00:16:48:083
00:24:49.083                             : en:(04)00:24:49:083
00:33:53.500                             : en:(05)00:33:53:500
00:43:45.208                             : en:(06)00:43:45:208
00:53:43.000                             : en:(07)00:53:43:000
01:03:11.375                             : en:(08)01:03:11:375
01:11:31.333                             : en:(09)01:11:31:333
01:19:01.208                             : en:(10)01:19:01:208
01:23:59.875                             : en:(11)01:23:59:875
01:31:29.708                             : en:(12)01:31:29:708
01:36:49.916                             : en:(13)01:36:49:916

Скриншот с названием фильма

Скриншоты

-
Скачать

Скачать торрент!

Как скачивать? · Что такое торрент? · Рейтинг и ограничения

Сайт не распространяет и не хранит электронные версии произведений, а лишь предоставляет доступ к создаваемому пользователями каталогу ссылок на торрент-файлы, которые содержат только списки хеш-сумм

[Профиль] [ЛС]
Показать сообщения:    
Ответить на тему

Текущее время: Сегодня 15:37

Часовой пояс: GMT + 4



Вы не можете начинать темы
Вы не можете отвечать на сообщения
Вы не можете редактировать свои сообщения
Вы не можете удалять свои сообщения
Вы не можете голосовать в опросах
Вы не можете прикреплять файлы к сообщениям
Вы не можете скачивать файлы