Страсти Дон Жуана / Don Jon (Джозеф Гордон-Левитт / Joseph Gordon-Levitt) [2013, США, комедия, мелодрама, DVDRip] Dub

Ответить на тему
 
Автор Сообщение

user ®

Стаж: 7 лет 7 месяцев

Сообщений: 20008

Пост Пост: #1 от 21-Ноя-2013 08:00

[Цитировать]

Страсти Дон ЖуанаDon Jon«В этой жизни меня заботит всего несколько вещей: мое тело, мой дом, моя тачка, мои друзья, мои телки и… порнуха»- Страна: США
Жанр: комедия, мелодрама
Год выпуска: 2013
Продолжительность: 01:26:07-Перевод: Профессиональный (полное дублирование) [Лицензия]
Субтитры: нет
Режиссер: Джозеф Гордон-Левитт / Joseph Gordon-Levitt
В ролях: Джозеф Гордон-Левитт, Скарлетт Йоханссон, Джулианна Мур, Тони Данца, Гленн Хедли, Бри Ларсон, Роб Браун, Джереми Люк, Пол Бен-Виктор, Италиа Риччи, Линдси Броад, Аманда Перез-Описание: Комичная история современного ловеласа, который из каждого любовного приключения вынужден спасаться бегством. Он еще не знает, что недалек тот час, когда ему все-таки придется остепениться...-


MPAA: R - Лицам до 17 лет обязательно присутствие взрослого-

Доп. Информация

Сценарий: Джозеф Гордон-Левитт / Joseph Gordon-Levitt
Продюсер: Рэм Бергман / Ram Bergman, Николя Картье / Nicolas Chartier, Джефф Фрэнкс / Jeff Franks, Брюс Уэйн Гиллис / Bruce Wayne Gillies, Никос Карамагиос / Nikos Karamigios
Оператор: Томас Клосс / Thomas Kloss
Композитор: Нэйтан Джонсон / Nathan Johnson
Бюджет: $6 000 000
Сборы в США: $24 133 522
Сборы в России: $1 986 757
Сборы в мире: $30 106 574
Мировая премьера: 18 января 2013
Релиз на DVD: 26 ноября 2013,
«Парадиз / Активижен»

Релиз на Blu-ray: 26 ноября 2013,
«Парадиз / Активижен»
-Качество: DVDRip (Исходник DVD5 R5)
Контейнер: AVI
Видео: XviD, 640x272 (2.35:1), 997 kbps, 25 fps, 0,229 bpp
Аудио: MP3 / 2.0 / 48 kHz / 128 kbps /-

Знаете ли Вы, что...

  • Джозеф Гордон-Левитт и Тони Данца ранее работали вместе в фильме «Ангелы у кромки поля» (1994). Тогда Левитту было всего 12 лет.
  • Версия фильма, которая была показана на фестивале «Сандэнс» в 2013 году, получила рейтинг NC-17. Режиссер Джозеф Гордон-Левитт вырезал из финальной версии некоторые кадры с порно, которое его герой смотрит на протяжении всего фильма. Он решил это сделать, чтобы люди не думали, будто этот фильм только о порнографии.
  • Этот фильм стал режиссерским дебютом Джозефа Гордона-Левитта.
  • Джозеф Гордон-Левитт написал роль специально для Скарлетт Йоханссон и был очень рад, когда она согласилась сняться в фильме.
  • еще 1 факт

Media Info

General
Complete name : G:\Strasti.Don.Juana.2013.D.DVDRip_700MB.avi
Format : AVI
Format/Info : Audio Video Interleave
File size : 699 MiB
Duration : 1h 26mn
Overall bit rate : 1 135 Kbps
Writing application : VirtualDubMod 1.5.10.3 | www.virtualdub-fr.org || (build 2550/release)
Writing library : VirtualDubMod build 2550/release
Video
ID : 0
Format : MPEG-4 Visual
Format profile : Advanced Simple@L5
Format settings, BVOP : 1
Format settings, QPel : No
Format settings, GMC : No warppoints
Format settings, Matrix : Default (MPEG)
Codec ID : XVID
Codec ID/Hint : XviD
Duration : 1h 26mn
Bit rate : 998 Kbps
Width : 640 pixels
Height : 272 pixels
Display aspect ratio : 2.35:1
Frame rate : 25.000 fps
Color space : YUV
Chroma subsampling : 4:2:0
Bit depth : 8 bits
Scan type : Progressive
Compression mode : Lossy
Bits/(Pixel*Frame) : 0.229
Stream size : 615 MiB (88%)
Writing library : XviD 73
Audio
ID : 1
Format : MPEG Audio
Format version : Version 1
Format profile : Layer 3
Codec ID : 55
Codec ID/Hint : MP3
Duration : 1h 26mn
Bit rate mode : Constant
Bit rate : 128 Kbps
Channel(s) : 2 channels
Sampling rate : 48.0 KHz
Compression mode : Lossy
Stream size : 78.8 MiB (11%)
Alignment : Aligned on interleaves
Interleave, duration : 40 ms (1.00 video frame)
Interleave, preload duration : 504 ms
Writing library : LAME3.99r
Encoding settings : -m s -V 4 -q 2 -lowpass 17 -b 128

Скриншот с названием фильма

Скриншоты

Скачать

Скачать торрент!

Как скачивать? · Что такое торрент? · Рейтинг и ограничения

Сайт не распространяет и не хранит электронные версии произведений, а лишь предоставляет доступ к создаваемому пользователями каталогу ссылок на торрент-файлы, которые содержат только списки хеш-сумм

[Профиль] [ЛС]
Показать сообщения:    
Ответить на тему

Текущее время: Сегодня 05:11

Часовой пояс: GMT + 4



Вы не можете начинать темы
Вы не можете отвечать на сообщения
Вы не можете редактировать свои сообщения
Вы не можете удалять свои сообщения
Вы не можете голосовать в опросах
Вы не можете прикреплять файлы к сообщениям
Вы не можете скачивать файлы