Орудия смерти: Город костей / The Mortal Instruments: City of Bones (Харольд Цварт / Harald Zwart) [2013, Канада, Германия, фэнтези, боевик, драма, BDRip 720p] Dub + Original(eng)

Ответить на тему
 
Автор Сообщение

user ®

Стаж: 7 лет 7 месяцев

Сообщений: 20008

Пост Пост: #1 от 20-Ноя-2013 23:30

[Цитировать]

Орудия смерти: Город костей / The Mortal Instruments: City of Bones
«Миры столкнутся»

Год выпуска: 2013
Страна: Канада, Германия
Производство: Constantin Film Produktion, Sony Pictures Entertainment (SPE), Unique Features
Жанр: Фэнтези, боевик, драма, мелодрама, детектив, приключения
Продолжительность: 02:09:55
Перевод: Профессиональный (Полное дублирование) [iTunes]
Субтитры: нет
Режиссер: Харольд Цварт
В ролях: Джейми Кэмпбелл Бауэр, Лили Коллинз, Кевин Дюранд, Джаред Харрис, Лина Хэди, Роберт Мэйллет, ККХ Паундер, Джонатан Риз Мейерс, Роберт Шихан, Кевин Зегерс
Описание: Клэри Фрэй всегда считала себя самой обыкновенной девушкой, пока не выяснилось, что она — потомок древнего рода Сумеречных Охотников, тайной касты воинов-полуангелов, защищающих наш мир от демонов. Когда мама Клэри исчезает, девушка объединяется с Сумеречными охотниками, чтобы спасти ее. Так начинается ее опасное знакомство с иной реальностью, в которой существуют демоны, маги, вампиры, оборотни и другие смертоносные существа.


Премьера(мир) - 12 августа 2013
Премьера(РФ) - 22 августа 2013, «Централ Партнершип»
Бюджет - $60 000 000

Качество: BDRip 720p
Формат: MKV
Видео кодек: AVC
Аудио кодек: AC3, DTS
Видео: 1280x534 (2,40:1), 23.976 fps, MPEG4-AVC, 5052 kbps, 0.308 bit/ pixel
Аудио (RUS): 48 kHz, AC3, 6 ch, 384 kbps avg - |Профессиональный (Полное дублирование) [iTunes]|
Аудио (ENG): 48 kHz, DTS, 6 ch, 1509 kbps avg - |Оригинал|

MI

General
Unique ID : 207218317307279247631781057101962443692 (0x9BE4CBD5E90AE781A852BD911AA07BAC)
Complete name : The.Mortal.Instruments.City.Of.Bones.2013.720p.mkv
Format : Matroska
Format version : Version 2
File size : 6.32 GiB
Duration : 2h 10mn
Overall bit rate : 6 942 Kbps
Encoded date : UTC 2013-11-19 08:44:25
Writing application : mkvmerge v6.3.0 ('You can't stop me!') built on Jun 28 2013 20:09:41
Writing library : libebml v1.3.0 + libmatroska v1.4.0
Video
ID : 1
Format : AVC
Format/Info : Advanced Video Codec
Format profile : High@L4.1
Format settings, CABAC : Yes
Format settings, ReFrames : 12 frames
Codec ID : V_MPEG4/ISO/AVC
Duration : 2h 10mn
Bit rate : 5 052 Kbps
Width : 1 280 pixels
Height : 534 pixels
Display aspect ratio : 2.40:1
Frame rate mode : Constant
Frame rate : 23.976 fps
Color space : YUV
Chroma subsampling : 4:2:0
Bit depth : 8 bits
Scan type : Progressive
Bits/(Pixel*Frame) : 0.308
Stream size : 4.47 GiB (71%)
Writing library : x264 core 133 r2334+704+50 a7549b7 tMod [8-bit@4:2:0 X86_64]
Encoding settings : cabac=1 / ref=12 / deblock=1:-3:-3 / analyse=0x3:0x113 / me=umh / subme=10 / psy=1 / fade_compensate=0.00 / psy_rd=1.05:0.02 / mixed_ref=1 / me_range=32 / chroma_me=1 / trellis=2 / 8x8dct=1 / cqm=0 / deadzone=21,11 / fast_pskip=1 / chroma_qp_offset=-3 / threads=16 / lookahead_threads=1 / sliced_threads=0 / nr=0 / decimate=1 / interlaced=0 / bluray_compat=0 / constrained_intra=0 / fgo=0 / bframes=6 / b_pyramid=2 / b_adapt=1 / b_bias=0 / direct=3 / weightb=1 / open_gop=0 / weightp=2 / keyint=240 / keyint_min=23 / scenecut=40 / intra_refresh=0 / rc_lookahead=50 / rc=2pass / mbtree=1 / bitrate=5052 / ratetol=1.0 / qcomp=0.70 / qpmin=0 / qpmax=69 / qpstep=4 / cplxblur=20.0 / qblur=0.5 / vbv_maxrate=50000 / vbv_bufsize=50000 / nal_hrd=none / ip_ratio=1.40 / aq=4:0.85 / aq-sensitivity=10.00 / aq-factor=1.00:1.00:1.00 / aq2=0 / aq3=0
Language : English
Default : Yes
Forced : No
Audio #1
ID : 2
Format : AC-3
Format/Info : Audio Coding 3
Mode extension : CM (complete main)
Format settings, Endianness : Big
Codec ID : A_AC3
Duration : 2h 10mn
Bit rate mode : Constant
Bit rate : 384 Kbps
Channel count : 6 channels
Channel positions : Front: L C R, Side: L R, LFE
Sampling rate : 48.0 KHz
Bit depth : 16 bits
Compression mode : Lossy
Stream size : 358 MiB (6%)
Language : Russian
Default : Yes
Forced : No
Audio #2
ID : 3
Format : DTS
Format/Info : Digital Theater Systems
Mode : 16
Format settings, Endianness : Big
Codec ID : A_DTS
Duration : 2h 10mn
Bit rate mode : Constant
Bit rate : 1 509 Kbps
Channel count : 6 channels
Channel positions : Front: L C R, Side: L R, LFE
Sampling rate : 48.0 KHz
Bit depth : 24 bits
Compression mode : Lossy
Stream size : 1.37 GiB (22%)
Language : English
Default : No
Forced : No
Menu
00:00:00.000 : en:00:00:00.000
00:08:04.609 : en:00:08:04.609
00:15:02.360 : en:00:15:02.360
00:22:18.379 : en:00:22:18.379
00:29:46.034 : en:00:29:46.034
00:38:43.071 : en:00:38:43.071
00:44:12.859 : en:00:44:12.859
00:49:45.232 : en:00:49:45.232
00:59:47.667 : en:00:59:47.667
01:06:47.295 : en:01:06:47.295
01:15:36.866 : en:01:15:36.866
01:22:36.034 : en:01:22:36.034
01:30:04.149 : en:01:30:04.149
01:37:07.572 : en:01:37:07.572
01:46:02.189 : en:01:46:02.189
01:54:13.013 : en:01:54:13.013

Скриншоты

Скачать

Скачать торрент!

Как скачивать? · Что такое торрент? · Рейтинг и ограничения

Сайт не распространяет и не хранит электронные версии произведений, а лишь предоставляет доступ к создаваемому пользователями каталогу ссылок на торрент-файлы, которые содержат только списки хеш-сумм

[Профиль] [ЛС]
Показать сообщения:    
Ответить на тему

Текущее время: Сегодня 22:41

Часовой пояс: GMT + 4



Вы не можете начинать темы
Вы не можете отвечать на сообщения
Вы не можете редактировать свои сообщения
Вы не можете удалять свои сообщения
Вы не можете голосовать в опросах
Вы не можете прикреплять файлы к сообщениям
Вы не можете скачивать файлы