Ты хочешь, чтобы я его убил? / Uwantme2killhim? (Эндрю Дуглас / Andrew Douglas) [2013, Великобритания, Триллер, драма, DVDRip] VO

Ответить на тему
 
Автор Сообщение

user ®

Стаж: 7 лет 7 месяцев

Сообщений: 20008

Пост Пост: #1 от 20-Ноя-2013 23:30

[Цитировать]

Ты хочешь, чтобы я его убил? / Uwantme2killhim?
Страна: Великобритания
Жанр: Триллер, драма
Год выпуска: 2013
Продолжительность: 01:28:18
Перевод: Одноголосый закадровый [Хихикающий доктор]
Cубтитры: нет
Оригинальная аудиодорожка: нет
Режиссер: Эндрю Дуглас / Andrew Douglas
В ролях: Джейми Блэкли, Тоби Регбо, Джоанн Фроггатт, Лиз Уайт, Джэми Уинстон, Марк Вомак, Эми Рен, Луиз Деламер, Джеймс Берроуз, Стефани Леонидас
Описание: Марк, парень, который увлекается интернет знакомствами.Там он знакомится с девушкой Рейчел, которая находится под программой защиты свидетелей. Неожиданное знакомство приводит к трагическим последствиям для самой девушки, а потом и для самого Марка. Фильм снят по реальной истории.
Сэмпл: http://multi-up.com/925147
Качество видео: DVDRip
Формат видео: AVI
Видео: XviD MPEG-4,720x304,25 fps,1939 kbps avg,0.35 bit/pixel
Аудио: AC3 Dolby Digital,48 kHz,2/0 (L,R) ch,256 kbps

MediaInfo

Общее
Полное имя : C:\Users\PC\Downloads\Ty.ho4eshj.4toby.ya.ego.ybil.2013.L1.DVDRi.avi
Формат : AVI
Формат/Информация : Audio Video Interleave
Размер файла : 1,36 Гбайт
Продолжительность : 1 ч. 28 м.
Общий поток : 2206 Кбит/сек
Программа кодирования : VirtualDubMod 1.5.10.2 (build 2540/release)
Библиотека кодирования : VirtualDubMod build 2540/release
Видео
Идентификатор : 0
Формат : MPEG-4 Visual
Профиль формата : Advanced Simple@L5
Параметр BVOP формата : 2
Параметр QPel формата : Нет
Параметр GMC формата : Без точки перехода
Параметр матрицы формата : Default (H.263)
Режим смешивания : Сжатый битовый поток
Идентификатор кодека : XVID
Идентификатор кодека/Подсказка : XviD
Продолжительность : 1 ч. 28 м.
Битрейт : 1940 Кбит/сек
Ширина : 720 пикселей
Высота : 304 пикселя
Соотношение сторон : 2,35:1
Частота кадров : 25,000 кадров/сек
Цветовое пространство : YUV
Субдискретизация насыщенности : 4:2:0
Битовая глубина : 8 бит
Тип развёртки : Прогрессивная
Метод сжатия : С потерями
Бит/(Пиксели*Кадры) : 0.355
Размер потока : 1,20 Гбайт (88%)
Библиотека кодирования : XviD 64
Аудио
Идентификатор : 1
Формат : AC-3
Формат/Информация : Audio Coding 3
Расширение режима : CM (complete main)
Параметр Endianness формата : Big
Идентификатор кодека : 2000
Продолжительность : 1 ч. 28 м.
Вид битрейта : Постоянный
Битрейт : 256 Кбит/сек
Каналы : 2 канала
Расположение каналов : Front: L R
Частота : 48,0 КГц
Битовая глубина : 16 бит
Метод сжатия : С потерями
Размер потока : 162 Мбайт (12%)
Выравнивание : Разделение по промежуткам
Продолжительность промежутка : 40 мс. (1,00 видеокадр)
Время предзагрузки промежутка : 500 мс.

Скриншот c названием фильма

Скриншоты

Скачать

Скачать торрент!

Как скачивать? · Что такое торрент? · Рейтинг и ограничения

Сайт не распространяет и не хранит электронные версии произведений, а лишь предоставляет доступ к создаваемому пользователями каталогу ссылок на торрент-файлы, которые содержат только списки хеш-сумм

[Профиль] [ЛС]
Показать сообщения:    
Ответить на тему

Текущее время: Сегодня 15:56

Часовой пояс: GMT + 4



Вы не можете начинать темы
Вы не можете отвечать на сообщения
Вы не можете редактировать свои сообщения
Вы не можете удалять свои сообщения
Вы не можете голосовать в опросах
Вы не можете прикреплять файлы к сообщениям
Вы не можете скачивать файлы