Росомаха: Бессмертный / The Wolverine (Джеймс Мэнголд / James Mangold) [2013, Австралия, США, фантастика, фэнтези, боевик, приключения, BDRip] [ Расширенная версия / Extended Cut] Dub + Sub (Rus)

Ответить на тему
 
Автор Сообщение

user ®

Стаж: 7 лет 7 месяцев

Сообщений: 20008

Пост Пост: #1 от 20-Ноя-2013 20:20

[Цитировать]

Росомаха: Бессмертный / The Wolverine Страна: Австралия, США
Жанр: фантастика, фэнтези, боевик, приключения
Год выпуска: 2013
Продолжительность: 02:18:14
Перевод: Профессиональный (дублированный) Лицензия BluRay EUR
Cубтитры: русские (полные + форсированные) (отдельно)
Оригинальная аудиодорожка: нет
Режиссер: Джеймс Мэнголд / James Mangold
В ролях: Хью Джекман, Фамке Янссен, Брайан Ти, Уилл Юн Ли, Светлана Ходченкова, Хироюки Санада, Тао Окамото, Рила Фукусима, Джеймс Фрайзер, Харукико Яманоути
Описание: Герой полюбившегося зрителям киносериала «Люди Икс», мутант Росомаха, возвращается на экраны в шестой раз. По словам создателей, это не продолжение «Последней битвы», хотя в хронологическом смысле сюжет фильма «Росомаха: Бессмертный» вытекает из предыдущих частей. Действие происходит в Японии, и в центре фильма вовсе не абстрактное противостояние «хороших» и «плохих» парней, а вполне конкретная история любви Росомахи и Марико, дочери главы криминального японского клана. Логан, потерявший почти всех своих друзей, в глубине души винит себя за это. В таком подавленном и даже депрессивном состоянии он предстает перед зрителями в первый раз. Образовавшаяся пустота заполняется яростью – и внезапной любовью к девушке, за обладание которой герою придется сражаться со всем миром, с отцом и братом Марико, с претендентами на ее руку и сердце, с самураями и якудза. Результат этой борьбы непредсказуем, поэтому фильм порадует огромным количеством потрясающих и напряженных сцен, настоящим экшеном.

Качество видео: BDRip [Рип с The Wolverine 2013 2D Extended Cut BluRay 1080p AVC DTS-HD MA7.1-CHDBits]
Формат видео: AVI
Видео: 688x288 (2.39:1), 23.976 fps, XviD build 73 ~1306 kbps avg, 0.28 bit/pixel
Аудио: 48 kHz, AC3 Dolby Digital, 2/0 (L,R) ch, ~192 kbps
Формат субтитров: softsub (SRT)

MediaInfo

Complete name                            : The.Wolverine.Extended.Edition.2013.XviD.BDRip-ed_rez.avi
Format                                   : AVI
Format/Info                              : Audio Video Interleave
File size                                : 1.46 GiB
Duration                                 : 2h 18mn
Overall bit rate                         : 1 508 Kbps
Movie name                               : The Wolverine [Extended Edition] (2013)
Genre                                    : Action | Adventure | Fantasy
Writing application                      : VirtualDubMod 1.5.10.3 (build 2550/release)
Original source form/Name                : Movie
Copyright                                : ed_rez
Video
ID                                       : 0
Format                                   : MPEG-4 Visual
Format profile                           : Advanced Simple@L5
Format settings, BVOP                    : 1
Format settings, QPel                    : No
Format settings, GMC                     : No warppoints
Format settings, Matrix                  : Custom
Codec ID                                 : XVID
Codec ID/Hint                            : XviD
Duration                                 : 2h 18mn
Bit rate                                 : 1 307 Kbps
Width                                    : 688 pixels
Height                                   : 288 pixels
Display aspect ratio                     : 2.40:1
Frame rate                               : 23.976 fps
Color space                              : YUV
Chroma subsampling                       : 4:2:0
Bit depth                                : 8 bits
Scan type                                : Progressive
Compression mode                         : Lossy
Bits/(Pixel*Frame)                       : 0.275
Stream size                              : 1.26 GiB (87%)
Writing library                          : XviD 73
Audio
ID                                       : 1
Format                                   : AC-3
Format/Info                              : Audio Coding 3
Mode extension                           : CM (complete main)
Format settings, Endianness              : Big
Codec ID                                 : 2000
Duration                                 : 2h 18mn
Bit rate mode                            : Constant
Bit rate                                 : 192 Kbps
Channel count                            : 2 channels
Channel positions                        : Front: L R
Sampling rate                            : 48.0 KHz
Bit depth                                : 16 bits
Compression mode                         : Lossy
Stream size                              : 190 MiB (13%)
Alignment                                : Split accross interleaves
Interleave, duration                     : 42 ms (1.00 video frame)
Interleave, preload duration             : 500 ms

Скриншоты


Скачать

Скачать торрент!

Как скачивать? · Что такое торрент? · Рейтинг и ограничения

Сайт не распространяет и не хранит электронные версии произведений, а лишь предоставляет доступ к создаваемому пользователями каталогу ссылок на торрент-файлы, которые содержат только списки хеш-сумм

[Профиль] [ЛС]
Показать сообщения:    
Ответить на тему

Текущее время: Сегодня 14:11

Часовой пояс: GMT + 4



Вы не можете начинать темы
Вы не можете отвечать на сообщения
Вы не можете редактировать свои сообщения
Вы не можете удалять свои сообщения
Вы не можете голосовать в опросах
Вы не можете прикреплять файлы к сообщениям
Вы не можете скачивать файлы