Всё включено 2 (Эдуард Радзюкевич) [2013, Комедия, WEBRip]

Ответить на тему
 
Автор Сообщение

user ®

Стаж: 7 лет 7 месяцев

Сообщений: 20008

Пост Пост: #1 от 20-Ноя-2013 08:35

[Цитировать]

Всё включено 2
Жанр: Комедия
Год выпуска: 2013
Продолжительность: 01:35:00
Режиссёр: Эдуард Радзюкевич
В ролях: Михаил Беспалов, Федор Добронравов, Роман Мадянов, Сергей Бурунов, Эдуард Радзюкевич, Андрей Кайков, Григорий Сиятвинда, Карэн Бадалов, Илья Уткин, Михаил Семин
Описание: Когда приятель похож на тебя как две капли воды, тут уж грех не поучаствовать в конкурсе двойников и не срубить легкие деньги в доллар-эквиваленте. И разве может помешать то, что ради этого надо лететь в Стамбул накануне собственной свадьбы?! Чтобы доказать будущему тестю-олигарху, что он способен позаботиться о его дочери, Андрей скрывает от невесты истинную цель своего путешествия и улетает в Турцию. Только планам парня не суждено сбыться, когда он встречает в Стамбуле старинных врагов и безумных друзей. И те, и другие превратят турецкий вояж Андрея в сумасшедший калейдоскоп приключений с риском для жизни.

Качество видео: WEBRip
Формат видео: AVI
Видео: Xvid, 720x320, 25 fps, 1919 kbps
Аудио: MP3, 48000 Гц, 128 Кбит/сек, 2ch

Mediainfo

Общее
Формат : AVI
Формат/Информация : Audio Video Interleave
Размер файла : 1,36 Гбайт
Продолжительность : 1 ч. 35 м.
Общий поток : 2057 Кбит/сек
Программа кодирования : VirtualDubMod 1.5.10.3 | www.virtualdub-fr.org || (build 2550/release)
Библиотека кодирования : VirtualDubMod build 2550/release
Видео
Идентификатор : 0
Формат : MPEG-4 Visual
Профиль формата : Advanced Simple@L5
Параметр BVOP формата : 2
Параметр QPel формата : Нет
Параметр GMC формата : Без точки перехода
Параметр матрицы формата : Выборочная
Идентификатор кодека : XVID
Идентификатор кодека/Подсказка : XviD
Продолжительность : 1 ч. 35 м.
Битрейт : 1919 Кбит/сек
Ширина : 720 пикселей
Высота : 320 пикселей
Соотношение сторон : 2,25:1
Частота кадров : 25,000 кадров/сек
Цветовое пространство : YUV
Субдискретизация насыщенности : 4:2:0
Битовая глубина : 8 бит
Тип развёртки : Прогрессивная
Метод сжатия : С потерями
Бит/(Пиксели*Кадры) : 0.333
Размер потока : 1,27 Гбайт (93%)
Библиотека кодирования : XviD 1.2.1 (UTC 2008-12-04)
Аудио
Идентификатор : 1
Формат : MPEG Audio
Версия формата : Version 1
Профиль формата : Layer 3
Идентификатор кодека : 55
Идентификатор кодека/Подсказка : MP3
Продолжительность : 1 ч. 35 м.
Вид битрейта : Постоянный
Битрейт : 128 Кбит/сек
Каналы : 2 канала
Частота : 48,0 КГц
Метод сжатия : С потерями
Размер потока : 87,0 Мбайт (6%)
Выравнивание : Соединение по промежуткам
Продолжительность промежутка : 40 мс. (1,00 видеокадр)
Время предзагрузки промежутка : 504 мс.
Библиотека кодирования : LAME3.99r
Настройки программы : -m s -V 4 -q 2 -lowpass 17 -b 128

Скриншот c названием фильма

Скриншоты

Скачать

Скачать торрент!

Как скачивать? · Что такое торрент? · Рейтинг и ограничения

Сайт не распространяет и не хранит электронные версии произведений, а лишь предоставляет доступ к создаваемому пользователями каталогу ссылок на торрент-файлы, которые содержат только списки хеш-сумм

[Профиль] [ЛС]
Показать сообщения:    
Ответить на тему

Текущее время: Сегодня 15:52

Часовой пояс: GMT + 4



Вы не можете начинать темы
Вы не можете отвечать на сообщения
Вы не можете редактировать свои сообщения
Вы не можете удалять свои сообщения
Вы не можете голосовать в опросах
Вы не можете прикреплять файлы к сообщениям
Вы не можете скачивать файлы