Пленка / Tape (Ричард Линклейтер / Richard Linklater) [2001, США, драма, WEB-DL 720p] AVO (Рудой) + Sub Eng + Original Eng

Ответить на тему
 
Автор Сообщение

user ®

Стаж: 7 лет 7 месяцев

Сообщений: 20008

Пост Пост: #1 от 19-Ноя-2013 23:05

[Цитировать]

Пленка / Кассета / Tape
Страна: США
Студия: The Independent Film Channel Productions & InDigEnt
Жанр: драма
Год выпуска: 2001
Продолжительность: 01:26:57
Перевод : Авторский (одноголосый закадровый) ЕВГЕНИЙ РУДОЙ
Cубтитры: английские
Оригинальная аудиодорожка: английский
Режиссер: Ричард Линклейтер / Richard Linklater/
В ролях: Итан Хоук (Ethan Hawke), Роберт Шон Леонард (Robert Sean Leonard), Ума Турман (Uma Thurman)
Описание: По пьесе Стивена Белбера. Молодой кинорежиссер Джон оказывается на местном кинофестивале для показа своей дебютной картины. Там Джон встречает своего старого школьного друга Винса, который приехал поддержать друга во время премьеры. Однако натянутая беседа при первой встрече перерастают в устный спарринг и становится ясно, что Винс все десять лет, с момента их последней встречи был занят переживанием конфликта между ним и Джоном. Тогда, 10 лет назад Джон фактически разбил отношения Винса с его девушкой Эми.
Доп. информация: Вообще описание не очень верное. Действие целиком происходит в гостиничном номере, о том что за его пределами узнаем лишь по разговорам. Несложная пьеса, подающая в ином свете само понятие "независимых" авторов.

Альтернативное описание:
Прекрасный спектакль. Режиссер Ричард Линклейтер известный в мире своими артхаусными фильмами (""Бездельник»,«Под кайфом и в смятении», «Пробуждение жизни») и коммерческими работами (""Школа рока», «Несносные медведи») решил снять фильм в одних декорациях и с тремя актерами. На главную роль был приглашен постоянный актер Линклейтера, в каком-то смысле его альтер эго Итан Хоук. Также был приглашен известный театральный актер Роберт Шон Леонард и в качестве женского персонажа, в честь кого заварился весь конфликт Ума Турман.
Играют все актеры мастерски и друг другу помогают, не перетягивая одеяло. Прежде всего хорош очень Леонард, сразу заметен его опыт игры на сцене, постоянно меняется выражение лица, характер персонажа, его переживания. Хоуку приходится стараться во всю, чтобы ему не уступать. Фильм снят мастерски за 80 минут не успеваешь заскучать, постоянно меняются планы, сюжет плавно развивается. Фильм вышел в один год с другим творением Линклейтера «Пробуждение жизни» и в отличие от того шедевра, эта картина лишена философский идей и мыслей, здесь есть только конфликт и довольна простая история. В чем-то фильм похож на шедевр Манкевича «Игра навылет», так что всем любителям таких спектаклей рекомендую посмотреть «Пленку». (piklast)"
--------------------------------------------------------------------------------
Оператор: Мариза Альберти /Maryse Alberti/
Сценарист: Стефен Белбер (Stephen Belber)
Продюсер: Алексис Алексаниан (Alexis Alexanian)
Монтажер: Сандра Эдейр /Sandra Adair/
Художник: Стивен Беатрис /Stephen Beatrice/
По пьесе: Стивена Белбера /Stephen Belber/
--------------------------------------------------
КИНОПОИСК. RU
РЕЙТИНГ -7.406 оценки: 407
7,2 /10 from 12 561 users
--------------------------------------------------
--------------------------------------------------
СЭМПЛ
--------------------------------------------------
Тип релиза: WEB-DL 720p
Контейнер: MKV
Видео: 1 280x716; 23.976 fps; ~ 4 016 Kbps; 0.183 Bits/Pixel
Аудио 1: Russian - 48 kHz, AC3 Dolby Digital, 2/0 (L,R) ch, ~192 kbps - Евгений Рудой
Аудио 2: English - 48 kHz, AC3 Dolby Digital, 2/0 (L,R) ch, ~192 kbps - Original
Формат субтитров: English (*UTF-8)

MediaInfo

General
Complete name : F:\EXCLUZIVE=19\ПЛЁНКА=TAPE.2001\TAPE.2001\TAPE.2001.720p.WEB-DL.mkv
Format : Matroska
File size : 2.73 GiB
Duration : 1h 26mn
Overall bit rate : 4 489 Kbps
Encoded date : UTC 2013-11-18 13:15:56
Writing application : mkvmerge v3.3.0 ('Language') built on Mar 24 2010 14:59:24
Writing library : libebml v0.8.0 + libmatroska v0.9.0
Video
ID : 1
Format : AVC
Format/Info : Advanced Video Codec
Format profile : High@L3.1
Format settings, CABAC : No
Format settings, ReFrames : 2 frames
Muxing mode : Container profile=Unknown@3.1
Codec ID : V_MPEG4/ISO/AVC
Duration : 1h 26mn
Bit rate : 4 016 Kbps
Width : 1 280 pixels
Height : 716 pixels
Display aspect ratio : 16:9
Frame rate : 23.976 fps
Color space : YUV
Chroma subsampling : 4:2:0
Bit depth : 8 bits
Scan type : Progressive
Bits/(Pixel*Frame) : 0.183
Stream size : 2.44 GiB (89%)
Title : Tape.2001
Language : English
Color primaries : BT.709-5, BT.1361, IEC 61966-2-4, SMPTE RP177
Transfer characteristics : BT.709-5, BT.1361
Matrix coefficients : BT.709-5, BT.1361, IEC 61966-2-4 709, SMPTE RP177
Audio #1
ID : 2
Format : AC-3
Format/Info : Audio Coding 3
Mode extension : CM (complete main)
Codec ID : A_AC3
Duration : 1h 26mn
Bit rate mode : Constant
Bit rate : 192 Kbps
Channel(s) : 2 channels
Channel positions : Front: L R
Sampling rate : 48.0 KHz
Stream size : 119 MiB (4%)
Title : AVO Рудой @ AC3 2ch 192 kbps
Language : Russian
Audio #2
ID : 3
Format : AC-3
Format/Info : Audio Coding 3
Mode extension : CM (complete main)
Codec ID : A_AC3
Duration : 1h 26mn
Bit rate mode : Constant
Bit rate : 192 Kbps
Channel(s) : 2 channels
Channel positions : Front: L R
Sampling rate : 48.0 KHz
Stream size : 119 MiB (4%)
Title : Original @ AC3 2ch 192 kbps
Language : English
Text
ID : 4
Format : UTF-8
Codec ID : S_TEXT/UTF8
Codec ID/Info : UTF-8 Plain Text
Title : (* UTF-8)
Language : English
Menu
00:00:00.000 : en:Chapter 1
00:09:36.000 : en:Chapter 2
00:18:34.000 : en:Chapter 3
00:27:31.000 : en:Chapter 4
00:36:50.000 : en:Chapter 5
00:46:24.000 : en:Chapter 6
00:56:25.000 : en:Chapter 7
01:06:25.000 : en:Chapter 8
01:15:21.000 : en:Chapter 9
01:24:41.000 : en:Chapter 10

Скриншоты

, ,
, ,
, ,
Скачать

Скачать торрент!

Как скачивать? · Что такое торрент? · Рейтинг и ограничения

Сайт не распространяет и не хранит электронные версии произведений, а лишь предоставляет доступ к создаваемому пользователями каталогу ссылок на торрент-файлы, которые содержат только списки хеш-сумм

[Профиль] [ЛС]
Показать сообщения:    
Ответить на тему

Текущее время: Сегодня 22:40

Часовой пояс: GMT + 4



Вы не можете начинать темы
Вы не можете отвечать на сообщения
Вы не можете редактировать свои сообщения
Вы не можете удалять свои сообщения
Вы не можете голосовать в опросах
Вы не можете прикреплять файлы к сообщениям
Вы не можете скачивать файлы