Война миров Z / World War Z (Марк Форстер / Marc Forster) [2013, США, ужасы, фантастика, боевик, триллер, приключения, BDRip 720p] [Unrated Cut / Расширенная версия] Dub + AVO (Сербин) + AVO (Дольский) + Sub Rus, Eng + Original Eng

Ответить на тему
 
Автор Сообщение

user ®

Стаж: 7 лет 7 месяцев

Сообщений: 20008

Пост Пост: #1 от 19-Ноя-2013 23:05

[Цитировать]

Война миров Z / World War Z / Unrated Cut Страна: США
Студия: Apparatus Productions, GK Films
Жанр: ужасы, фантастика, боевик, триллер, приключения
Год выпуска: 2013
Продолжительность: 02:03:03
Перевод 1: Профессиональный (дублированный) Blu-ray (со вставками альтернативного дубляжа)
Перевод 2: Авторский (одноголосый закадровый) Ю.Сербин
Перевод 3: Авторский (одноголосый закадровый) А.Дольский
Cубтитры: русские(forced,full),английские (forced,full,SDH)
Оригинальная аудиодорожка: английский
Режиссер: Марк Форстер / Marc Forster
В ролях: Брэд Питт, Мирей Инос, Джеймс Бэдж Дэйл, Мэттью Фокс, Даниэлла Кертеш, Луди Бокен, Фана Мокоэна, Дэвид Морc, Элайес Габел, Питер Капальди.
Описание: Джерри Лейн — бывший сотрудник ООН, не раз рисковавший жизнью ради страны. Для него всегда семья стояла на первом месте, и после увольнения он все свое время проводит с любимой женой и двумя дочерьми. Однажды на город обрушился странный вирус, превращающий жителей в кровожадных зомби. Чтобы спасти свою семью, Джерри решает бежать из города, но сделать это оказывается совсем не просто. Знания и навыки, полученные им за время службы, помогают им пробраться через инфицированных. Однако, как оказывается позднее, не только их город подвергся заражению, а и весь мир. Укрыв семью в безопасном месте, Джерри возвращается на службу, чтобы выяснить причины заражения и остановить массовую эпидемию...

Тип релиза: BDRip 720p[NiP]
Контейнер: MKV
Видео: AVC, 1280x534,6000 kbps, 23.976 fps
Аудио 1: Russian: 48 kHz, AC3, 3/2 (L,C,R,l,r) + LFE ch, ~640.00 kbps |Blu-ray|
Аудио 2: Russian: 48 kHz, AC3, 3/2 (L,C,R,l,r) + LFE ch, ~640.00 kbps |Ю.Сербин|
Аудио 3: Russian: 48 kHz, AC3, 3/2 (L,C,R,l,r) + LFE ch, ~640.00 kbps |А.Дольский|
Аудио 4: English: 48 kHz, AC3, 3/2 (L,C,R,l,r) + LFE ch, ~640.00 kbps |Original|
Чаптеры:есть

Доп.информация

Перевод Юрия Сербина выполнен в рамках сервиса от HDCLUB "Озвучивание". Спонсоры: igrok2012, IvAlien, tambov68, denismgn1987, Luka69, Andresoff, savex, Hirurg, fen, iKazar, Kirillhome, storm_vv, CinemaHD, Max_U, simonov_vs, dr_akula68, Rushmore, rivaspb, hardkatok, zlodei24, RAUL, gafur.
Работа над дорогой: dsk71.
За работу над русской дублированной звуковой дорожкой, а также за форсированные субтитры большое спасибо Sergesha

MediaInfo

General
Unique ID : 248427085996059172764934142652592449287 (0xBAE550FF0B57E8EC8B8CD6942E406707)
Complete name : D:\World.War.Z.2013.Unrated.720p.BluRay.DD5.1 x264-Talian-.mkv
Format : Matroska
Format version : Version 2
File size : 7.36 GiB
Duration : 2h 3mn
Overall bit rate : 8 562 Kbps
Movie name : -Talian-
Encoded date : UTC 2013-11-18 19:37:47
Writing application : mkvmerge v5.7.0 ('The Whirlwind') built on Jul 8 2012 20:08:51
Writing library : libebml v1.2.3 + libmatroska v1.3.0
Video
ID : 1
Format : AVC
Format/Info : Advanced Video Codec
Format profile : High@L4.1
Format settings, CABAC : Yes
Format settings, ReFrames : 12 frames
Codec ID : V_MPEG4/ISO/AVC
Duration : 2h 3mn
Bit rate : 6 000 Kbps
Width : 1 280 pixels
Height : 534 pixels
Display aspect ratio : 2.40:1
Frame rate : 23.976 fps
Color space : YUV
Chroma subsampling : 4:2:0
Bit depth : 8 bits
Scan type : Progressive
Bits/(Pixel*Frame) : 0.366
Stream size : 5.01 GiB (68%)
Title : NiP
Writing library : x264 core 138 r2358kMod 9e941d1
Encoding settings : cabac=1 / ref=12 / deblock=1:-3:-3 / analyse=0x3:0x133 / me=esa / subme=11 / psy=1 / fade_compensate=0.00 / psy_rd=0.95:0.00 / mixed_ref=1 / me_range=24 / chroma_me=1 / trellis=2 / 8x8dct=1 / cqm=0 / deadzone=21,11 / fast_pskip=0 / chroma_qp_offset=-2 / threads=12 / lookahead_threads=2 / sliced_threads=0 / nr=0 / decimate=1 / interlaced=0 / bluray_compat=0 / constrained_intra=0 / bframes=8 / b_pyramid=2 / b_adapt=2 / b_bias=0 / direct=3 / weightb=1 / open_gop=0 / weightp=2 / keyint=250 / keyint_min=23 / scenecut=40 / intra_refresh=0 / rc=2pass / mbtree=0 / bitrate=6000 / ratetol=1.0 / qcomp=0.70 / qpmin=0 / qpmax=69 / qpstep=4 / cplxblur=20.0 / qblur=0.5 / ip_ratio=1.40 / pb_ratio=1.30 / aq=1:1.00 / zones=720,1156,b=1.5/1165,1760,b=1.5/3891,3925,b=1.8/25306,25398,b=1.2/25443,26210,b=1.2/26245,27043,b=1.2/27427,27680,b=1.2/33139,33254,b=1.2/33333,33415,b=1.2/33597,33680,b=1.2/34980,35037,b=1.2/35278,35957,b=1.2/36091,36440,b=1.2/36460,36745,b=1.2/36942,37144,b=1.2/55595,55777,b=1.2/56110,56230,b=1.2/56297,56478,b=1.2/56887,56929,b=1.2/57111,57174,b=1.2/70652,70726,b=1.2/70727,71582,b=1.2/71638,71738,b=1.2/71915,72604,b=1.2/72742,74245,b=1.2/74317,74403,b=1.2/74749,74753,b=1.2/74964,75035,b=1.2/75461,75516,b=1.2/75626,75714,b=1.2/105101,105177,b=1.2/104911,104998,b=1.2/112253,112264,b=1.2/112273,112293,b=1.2/113655,113658,b=1.2/114629,114679,b=1.2/123288,123295,b=1.2/142336,142416,b=1.2/142527,142551,b=1.2
Language : English
Default : Yes
Forced : No
Matrix coefficients : BT.709-5, BT.1361, IEC 61966-2-4 709, SMPTE RP177
Audio #1
ID : 2
Format : AC-3
Format/Info : Audio Coding 3
Mode extension : CM (complete main)
Format settings, Endianness : Big
Codec ID : A_AC3
Duration : 2h 3mn
Bit rate mode : Constant
Bit rate : 640 Kbps
Channel(s) : 6 channels
Channel positions : Front: L C R, Side: L R, LFE
Sampling rate : 48.0 KHz
Bit depth : 16 bits
Compression mode : Lossy
Stream size : 563 MiB (7%)
Title : DUB-Blu-ray (со вставками альтернативного дубляжа)
Language : Russian
Default : Yes
Forced : No
Audio #2
ID : 3
Format : AC-3
Format/Info : Audio Coding 3
Mode extension : CM (complete main)
Format settings, Endianness : Big
Codec ID : A_AC3
Duration : 2h 3mn
Bit rate mode : Constant
Bit rate : 640 Kbps
Channel(s) : 6 channels
Channel positions : Front: L C R, Side: L R, LFE
Sampling rate : 48.0 KHz
Bit depth : 16 bits
Compression mode : Lossy
Stream size : 563 MiB (7%)
Title : AVO-Ю.Сербин
Language : Russian
Default : No
Forced : No
Audio #3
ID : 4
Format : AC-3
Format/Info : Audio Coding 3
Mode extension : CM (complete main)
Format settings, Endianness : Big
Codec ID : A_AC3
Duration : 2h 3mn
Bit rate mode : Constant
Bit rate : 640 Kbps
Channel(s) : 6 channels
Channel positions : Front: L C R, Side: L R, LFE
Sampling rate : 48.0 KHz
Bit depth : 16 bits
Compression mode : Lossy
Stream size : 563 MiB (7%)
Title : AVO-А.Дольский
Language : Russian
Default : No
Forced : No
Audio #4
ID : 5
Format : AC-3
Format/Info : Audio Coding 3
Mode extension : CM (complete main)
Format settings, Endianness : Big
Codec ID : A_AC3
Duration : 2h 3mn
Bit rate mode : Constant
Bit rate : 640 Kbps
Channel(s) : 6 channels
Channel positions : Front: L C R, Side: L R, LFE
Sampling rate : 48.0 KHz
Bit depth : 16 bits
Compression mode : Lossy
Stream size : 563 MiB (7%)
Title : Original
Language : English
Default : No
Forced : No
Text #1
ID : 6
Format : UTF-8
Codec ID : S_TEXT/UTF8
Codec ID/Info : UTF-8 Plain Text
Title : Sub-Forced
Language : Russian
Default : Yes
Forced : No
Text #2
ID : 7
Format : UTF-8
Codec ID : S_TEXT/UTF8
Codec ID/Info : UTF-8 Plain Text
Title : Sub
Language : Russian
Default : No
Forced : No
Text #3
ID : 8
Format : UTF-8
Codec ID : S_TEXT/UTF8
Codec ID/Info : UTF-8 Plain Text
Title : Sub-forced
Language : English
Default : No
Forced : No
Text #4
ID : 9
Format : UTF-8
Codec ID : S_TEXT/UTF8
Codec ID/Info : UTF-8 Plain Text
Title : Sub-full
Language : English
Default : No
Forced : No
Text #5
ID : 10
Format : UTF-8
Codec ID : S_TEXT/UTF8
Codec ID/Info : UTF-8 Plain Text
Title : Sub-SDH
Language : English
Default : No
Forced : No
Menu
00:00:00.000 : en:Chapter 01
00:05:05.179 : en:Chapter 02
00:13:53.999 : en:Chapter 03
00:22:43.195 : en:Chapter 04
00:29:46.034 : en:Chapter 05
00:35:21.494 : en:Chapter 06
00:42:23.457 : en:Chapter 07
00:52:37.946 : en:Chapter 08
00:58:53.821 : en:Chapter 09
01:07:18.868 : en:Chapter 10
01:15:11.757 : en:Chapter 11
01:24:02.037 : en:Chapter 12
01:29:08.801 : en:Chapter 13
01:34:50.518 : en:Chapter 14
01:43:45.469 : en:Chapter 15
01:52:17.981 : en:Chapter 16
01:55:51.653 : en:Chapter 17

Скриншоты

Source vs Encode






Скачать

Скачать торрент!

Как скачивать? · Что такое торрент? · Рейтинг и ограничения

Сайт не распространяет и не хранит электронные версии произведений, а лишь предоставляет доступ к создаваемому пользователями каталогу ссылок на торрент-файлы, которые содержат только списки хеш-сумм

[Профиль] [ЛС]
Показать сообщения:    
Ответить на тему

Текущее время: Сегодня 20:36

Часовой пояс: GMT + 4



Вы не можете начинать темы
Вы не можете отвечать на сообщения
Вы не можете редактировать свои сообщения
Вы не можете удалять свои сообщения
Вы не можете голосовать в опросах
Вы не можете прикреплять файлы к сообщениям
Вы не можете скачивать файлы