Сестры, братья - соперницы, соперники / Sibling Rivalry (Карл Райнер / Carl Reiner) [1990, США, комедия, HDTV 1080i] DVO (НТВ+) + MVO + AVO (А. Михалев) + Sub Eng + Original Eng

Ответить на тему
 
Автор Сообщение

user ®

Стаж: 7 лет 7 месяцев

Сообщений: 20008

Пост Пост: #1 от 19-Ноя-2013 23:05

[Цитировать]

Сестры, братья - соперницы, соперники / Sibling Rivalry
Страна: CША
Студия: Castle Rock Entertainment, Nelson Entertainment
Жанр: комедия
Год выпуска: 1990
Продолжительность: 01:24:07
Перевод 1: Профессиональный (двухголосый закадровый) НТВ+
Перевод 2: Профессиональный (многоголосый закадровый)
Перевод 3: Авторский (одноголосый закадровый) Алексей Михалев
Cубтитры: английские
Оригинальная аудиодорожка: английский
Режиссер: Карл Райнер / Carl Reiner
В ролях: Керсти Элли / Kirstie Alley , Билл Пуллман / Bill Pullman, Кэрри Фишер / Carrie Fisher , Джэми Гертц / Jami Gertz , Скотт Бакула / Scott Bakula и др.
Описание: Муж не обращает на нее внимания, родственники не замечают, сестра видит в ней только недостатки. В отчаянии Марджори Тернер (Элли) ложится в постель с очаровательным незнакомцем (Эллиотт), а тот возьми и умри от сердечного приступа прямо в койке! Но это еще не все.
Покойный, оказывается, был ее шурином. Сексуальные, семейные и прочие взаимоотношения между братьями, сестрами и прочими родственниками с юмором обыгрываются в этой детективной комедии.

IMDB
Тип релиза: HDTV 1080i
Контейнер: MKV
Видео: AVC 1920x1080 (16:9) 25.0fps Bit rate 6914Kbps
Аудио 1: MP2 48.0KHz 2ch 192 Kbps rus DVO
Аудио 2: AC3 48.0KHz 2ch 192 Kbps rus MVO
Аудио 3: AC3 48.0KHz 2ch 192 Kbps rus AVO
Аудио 4: AC3 48.0KHz 2ch 192 Kbps eng
Формат субтитров: softsub (SRT)

MediaInfo

Общее
Уникальный идентификатор : 184570023489676013397794176469497106519 (0x8ADAE4BCE85CE95090792295818D5057)
Полное имя : E:\torrent\Sibling Rivalry_HDTV1080i.mkv
Формат : Matroska
Версия формата : Version 4 / Version 2
Размер файла : 4,61 Гбайт
Продолжительность : 1 ч. 24 м.
Общий поток : 7838 Кбит/сек
Дата кодирования : UTC 2013-11-18 07:43:49
Программа кодирования : mkvmerge v6.4.1 ('Omega Point') built on Sep 16 2013 22:05:10
Библиотека кодирования : libebml v1.3.0 + libmatroska v1.4.1
Видео
Идентификатор : 1
Формат : AVC
Формат/Информация : Advanced Video Codec
Профиль формата : High@L4.0
Параметр CABAC формата : Да
Параметр ReFrames формата : 3 кадра
Параметр GOP формата : M=4, N=32
Идентификатор кодека : V_MPEG4/ISO/AVC
Продолжительность : 1 ч. 24 м.
Битрейт : 6914 Кбит/сек
Ширина : 1920 пикселей
Высота : 1080 пикселей
Соотношение сторон : 16:9
Режим частоты кадров : Постоянный
Частота кадров : 25,000 кадров/сек
Стандарт вещания : Component
Цветовое пространство : YUV
Субдискретизация насыщенности : 4:2:0
Битовая глубина : 8 бит
Тип развёртки : Чересстрочная
Порядок развёртки : Верхнее поле первое
Бит/(Пиксели*Кадры) : 0.133
Размер потока : 4,06 Гбайт (88%)
Заголовок : Sibling Rivalry_HDTV1080i
Default : Да
Forced : Нет
Основные цвета : BT.709
Характеристики трансфера : BT.709
Коэффициенты матрицы : BT.709
Аудио #1
Идентификатор : 2
Формат : MPEG Audio
Версия формата : Version 1
Профиль формата : Layer 2
Идентификатор кодека : A_MPEG/L2
Идентификатор кодека/Подсказка : MP2
Продолжительность : 1 ч. 24 м.
Вид битрейта : Постоянный
Битрейт : 192 Кбит/сек
Каналы : 2 канала
Частота : 48,0 КГц
Метод сжатия : С потерями
Размер потока : 116 Мбайт (2%)
Заголовок : Sibling Rivalry_MP2_2ch_DVO_NTV+
Язык : Russian
Default : Да
Forced : Нет
Аудио #2
Идентификатор : 3
Формат : AC-3
Формат/Информация : Audio Coding 3
Расширение режима : CM (complete main)
Параметр Endianness формата : Big
Идентификатор кодека : A_AC3
Продолжительность : 1 ч. 24 м.
Вид битрейта : Постоянный
Битрейт : 192 Кбит/сек
Каналы : 2 канала
Расположение каналов : Front: L R
Частота : 48,0 КГц
Битовая глубина : 16 бит
Метод сжатия : С потерями
Размер потока : 116 Мбайт (2%)
Заголовок : Sibling Rivalry_AC3_2ch_MVO
Язык : Russian
Default : Нет
Forced : Нет
Аудио #3
Идентификатор : 4
Формат : AC-3
Формат/Информация : Audio Coding 3
Расширение режима : CM (complete main)
Параметр Endianness формата : Big
Идентификатор кодека : A_AC3
Продолжительность : 1 ч. 24 м.
Вид битрейта : Постоянный
Битрейт : 192 Кбит/сек
Каналы : 2 канала
Расположение каналов : Front: L R
Частота : 48,0 КГц
Битовая глубина : 16 бит
Метод сжатия : С потерями
Размер потока : 116 Мбайт (2%)
Заголовок : Sibling Rivalry_AC3_2ch_AVO_A. Mihalev
Язык : Russian
Default : Нет
Forced : Нет
Аудио #4
Идентификатор : 5
Формат : AC-3
Формат/Информация : Audio Coding 3
Расширение режима : CM (complete main)
Параметр Endianness формата : Big
Идентификатор кодека : A_AC3
Продолжительность : 1 ч. 24 м.
Вид битрейта : Постоянный
Битрейт : 192 Кбит/сек
Каналы : 2 канала
Расположение каналов : Front: L R
Частота : 48,0 КГц
Битовая глубина : 16 бит
Метод сжатия : С потерями
Размер потока : 116 Мбайт (2%)
Заголовок : Sibling Rivalry_AC3_2ch_original eng
Язык : English
Default : Нет
Forced : Нет
Текст
Идентификатор : 6
Формат : UTF-8
Идентификатор кодека : S_TEXT/UTF8
Идентификатор кодека/Информация : UTF-8 Plain Text
Заголовок : Sibling Rivalry_subtitle eng
Язык : English
Default : Нет
Forced : Нет

Скриншот с названием фильма

Скриншоты


Сравнение с DVD


Скачать

Скачать торрент!

Как скачивать? · Что такое торрент? · Рейтинг и ограничения

Сайт не распространяет и не хранит электронные версии произведений, а лишь предоставляет доступ к создаваемому пользователями каталогу ссылок на торрент-файлы, которые содержат только списки хеш-сумм

[Профиль] [ЛС]
Показать сообщения:    
Ответить на тему

Текущее время: Сегодня 20:32

Часовой пояс: GMT + 4



Вы не можете начинать темы
Вы не можете отвечать на сообщения
Вы не можете редактировать свои сообщения
Вы не можете удалять свои сообщения
Вы не можете голосовать в опросах
Вы не можете прикреплять файлы к сообщениям
Вы не можете скачивать файлы