Вулкан / Volcano (Мик Джексон / Mick Jackson) [1997, США, Боевик, фильм-катастрофа, драма, триллер, BDRip 720p] Dub + MVO + AVO (Ю. Живов) + Sub Rus + Original Eng

Ответить на тему
 
Автор Сообщение

user ®

Стаж: 7 лет 7 месяцев

Сообщений: 20008

Пост Пост: #1 от 19-Ноя-2013 23:05

[Цитировать]

Вулкан / Volcano
Страна: США
Студия: 20th Century Fox
Жанр: Боевик, фильм-катастрофа, драма, триллер
Год выпуска: 1997
Продолжительность: 01:43:51
Перевод: Профессиональный (дублированный)
Перевод 2: Профессиональный (многоголосый закадровый)
Перевод 3: Авторский (одноголосый закадровый) Ю. Живов
Cубтитры: русские, английские, украинские
Оригинальная аудиодорожка: английский
Режиссер: Мик Джексон / Mick Jackson
В ролях: Томми Ли Джонс, Энн Хеч, Гэби Хоффманн, Дон Чидл, Жаклин Ким, Кит Дэвид, Джон Корбетт, Майкл Рисполи, Джон Кэрролл Линч, Марсело Тедфорд
Описание: Лос — Анджелес на своем веку достаточно повидал стихийных бедствий: землетрясений, пожаров, наводнений. Но сейчас «городу ангелов» предстоит столкнуться с самой страшной из когда — либо переживаемых им катастроф, которая грозит стереть его с лица земли.В одном из самых населенных районов Лос — Анджелеса внезапно пришел в активное действие вулкан. Раскаленная, грозящая смертью лава уже начала выплескиваться на улицы, запруженные автомобилями…Но, как всегда, герой появляется вовремя — на этот раз в облике мужественного офицера службы спасения в случае стихийных бедствий, который возглавляет борьбу со стихией…
Тип релиза: BDRip 720p
Контейнер: MKV
Видео: MPEG-4 AVC, 7500 Кбит/с, 1280x720, 23.976 кадр/с
Аудио: Русский (AC3, 2 ch, 192 Кбит/с) / Дублированный
Аудио 2: Русский (DTS, 6 ch, 768 Кбит/с) / Профессиональный многоголосый
Аудио 3: Русский (AC3, 6 ch, 640 Кбит/с) / Авторский одноголосый (Ю. Живов)
Аудио 4: Английский (AC3, 6 ch, 640 Кбит/с)

MediaInfo

General
Unique ID : 194057624945674499412390507463276918268 (0x91FE239ADFFCBC7D99AFC316A79275FC)
Complete name : D:\Documents\Мои видеозаписи\Vulkan.1997.BDRip.(720p)-MediaClub.mkv
Format : Matroska
Format version : Version 4 / Version 2
File size : 7.07 GiB
Duration : 1h 43mn
Overall bit rate : 9 740 Kbps
Movie name : -=MediaClub-kaspr=-
Encoded date : UTC 2013-11-10 05:45:56
Writing application : mkvmerge v6.1.0 ('Old Devil') built on Mar 4 2013 09:10:42
Writing library : libebml v1.3.0 + libmatroska v1.4.0
Video
ID : 1
Format : AVC
Format/Info : Advanced Video Codec
Format profile : High@L4.1
Format settings, CABAC : Yes
Format settings, ReFrames : 8 frames
Codec ID : V_MPEG4/ISO/AVC
Duration : 1h 43mn
Bit rate : 7 500 Kbps
Width : 1 280 pixels
Height : 720 pixels
Display aspect ratio : 16:9
Frame rate mode : Constant
Frame rate : 23.976 fps
Color space : YUV
Chroma subsampling : 4:2:0
Bit depth : 8 bits
Scan type : Progressive
Bits/(Pixel*Frame) : 0.339
Stream size : 5.30 GiB (75%)
Title : -=MediaClub-kaspr=-
Writing library : x264 core 130 r2273 b3065e6
Encoding settings : cabac=1 / ref=8 / deblock=1:-3:-3 / analyse=0x3:0x133 / me=umh / subme=11 / psy=1 / psy_rd=1.00:0.20 / mixed_ref=1 / me_range=48 / chroma_me=1 / trellis=2 / 8x8dct=1 / cqm=0 / deadzone=21,11 / fast_pskip=0 / chroma_qp_offset=-3 / threads=12 / lookahead_threads=2 / sliced_threads=0 / nr=0 / decimate=0 / interlaced=0 / bluray_compat=0 / constrained_intra=0 / bframes=9 / b_pyramid=2 / b_adapt=2 / b_bias=0 / direct=3 / weightb=1 / open_gop=0 / weightp=2 / keyint=240 / keyint_min=23 / scenecut=40 / intra_refresh=0 / rc=2pass / mbtree=0 / bitrate=7500 / ratetol=1.0 / qcomp=0.60 / qpmin=0 / qpmax=69 / qpstep=4 / cplxblur=20.0 / qblur=0.5 / ip_ratio=1.40 / pb_ratio=1.30 / aq=1:1.00
Default : Yes
Forced : Yes
Audio #1
ID : 2
Format : AC-3
Format/Info : Audio Coding 3
Mode extension : CM (complete main)
Format settings, Endianness : Big
Codec ID : A_AC3
Duration : 1h 43mn
Bit rate mode : Constant
Bit rate : 192 Kbps
Channel count : 2 channels
Channel positions : Front: L R
Sampling rate : 48.0 KHz
Bit depth : 16 bits
Compression mode : Lossy
Stream size : 143 MiB (2%)
Title : DUB
Language : Russian
Default : Yes
Forced : Yes
Audio #2
ID : 3
Format : DTS
Format/Info : Digital Theater Systems
Mode : 16
Format settings, Endianness : Big
Codec ID : A_DTS
Duration : 1h 43mn
Bit rate mode : Constant
Bit rate : 768 Kbps
Channel count : 6 channels
Channel positions : Front: L C R, Side: L R, LFE
Sampling rate : 48.0 KHz
Bit depth : 16 bits
Compression mode : Lossy
Stream size : 571 MiB (8%)
Title : MVO
Language : Russian
Default : No
Forced : No
Audio #3
ID : 4
Format : AC-3
Format/Info : Audio Coding 3
Mode extension : CM (complete main)
Format settings, Endianness : Big
Codec ID : A_AC3
Duration : 1h 43mn
Bit rate mode : Constant
Bit rate : 640 Kbps
Channel count : 6 channels
Channel positions : Front: L C R, Side: L R, LFE
Sampling rate : 48.0 KHz
Bit depth : 16 bits
Compression mode : Lossy
Stream size : 475 MiB (7%)
Title : Живов
Language : Russian
Default : No
Forced : No
Audio #4
ID : 5
Format : AC-3
Format/Info : Audio Coding 3
Mode extension : CM (complete main)
Format settings, Endianness : Big
Codec ID : A_AC3
Duration : 1h 43mn
Bit rate mode : Constant
Bit rate : 640 Kbps
Channel count : 6 channels
Channel positions : Front: L C R, Side: L R, LFE
Sampling rate : 48.0 KHz
Bit depth : 16 bits
Compression mode : Lossy
Stream size : 475 MiB (7%)
Language : English
Default : No
Forced : No
Text #1
ID : 6
Format : UTF-8
Codec ID : S_TEXT/UTF8
Codec ID/Info : UTF-8 Plain Text
Language : Russian
Default : No
Forced : No
Text #2
ID : 7
Format : UTF-8
Codec ID : S_TEXT/UTF8
Codec ID/Info : UTF-8 Plain Text
Language : Ukrainian
Default : No
Forced : No
Text #3
ID : 8
Format : UTF-8
Codec ID : S_TEXT/UTF8
Codec ID/Info : UTF-8 Plain Text
Language : English
Default : No
Forced : No
Menu
00:00:00.000 : en:Chapter 01
00:11:41.742 : en:Chapter 02
00:21:57.357 : en:Chapter 03
00:30:05.553 : en:Chapter 04
00:42:56.115 : en:Chapter 05
00:53:30.749 : en:Chapter 06
01:02:27.827 : en:Chapter 07
01:10:18.839 : en:Chapter 08
01:21:46.818 : en:Chapter 09
01:33:04.662 : en:Chapter 10

Скриншоты




Скачать

Скачать торрент!

Как скачивать? · Что такое торрент? · Рейтинг и ограничения

Сайт не распространяет и не хранит электронные версии произведений, а лишь предоставляет доступ к создаваемому пользователями каталогу ссылок на торрент-файлы, которые содержат только списки хеш-сумм

[Профиль] [ЛС]
Показать сообщения:    
Ответить на тему

Текущее время: Сегодня 07:59

Часовой пояс: GMT + 4



Вы не можете начинать темы
Вы не можете отвечать на сообщения
Вы не можете редактировать свои сообщения
Вы не можете удалять свои сообщения
Вы не можете голосовать в опросах
Вы не можете прикреплять файлы к сообщениям
Вы не можете скачивать файлы