Пятерка супергероев / Super Buddies (Роберт Винс / Robert Vince) [2013, США, семейный, HDRip] Dub

Ответить на тему
 
Автор Сообщение

user ®

Стаж: 7 лет 7 месяцев

Сообщений: 20008

Пост Пост: #1 от 19-Ноя-2013 23:05

[Цитировать]

Пятерка супергероев / Super Buddies- Страна: США
Жанр: семейный
Год выпуска: 2013
Продолжительность: 01:20:41
Перевод: Профессиональный (дублированный)
Cубтитры: нет-Режиссер: Роберт Винс / Robert Vince
В ролях: Джон Ратценбергер, Майкл Тиган, Джейсон Эрлз, Тим Конуэй, Аттикус Шаффер, Элисон Стоунер, Купер Рот, Jeremy Shinder, Тай Паниц, Колин Хэнкс.
Описание: Обычный день на Ферме Фернфилда перестал быть скучным, когда Бутуз, Замараш, Би-Дог, Будда и Розабелла нашли загадочные кольца, наделившие наших героев уникальными суперспособностями. Вы и «гав» сказать не успеете, как отважные щенки окажутся втянуты в неравный бой с оборотнем-пришельцем из далекого космоса, угрожающим всей нашей планете. Но смогут ли верные друзья поставить злодея на место, не раскрыв при этом тайну своих суперспособностей? «Пятерка супергероев» — это фильм, полный юмора, приключений и очаровательных героев, который станет украшением вашей домашней коллекции. Бесстрашные друзья доказывают – если подходишь к делу с умом и играешь в команде, то не нужны никакие суперспособности, чтобы быть настоящим супергероем!-Автор рипа: avproh
Качество видео: HDRip
Формат видео: AVI | Sample
Видео: 720x400 (16:9), 23.976 fps, XviD 65 ~1154 kbps avg, 0.17 bit/pixel
Аудио: 48 kHz, MPEG Layer 3, 2 ch, ~128.00 kbps avg

Скриншоты

MediaInfo

Format : AVI
Format/Info : Audio Video Interleave
File size : 745 MiB
Duration : 1h 20mn
Overall bit rate : 1 291 Kbps
Writing application : VirtualDubModRus 1.5.10.2 (build 2542/release)
Writing library : VirtualDubMod build 2542/release
Video
ID : 0
Format : MPEG-4 Visual
Format profile : Advanced Simple@L5
Format settings, BVOP : Yes
Format settings, QPel : No
Format settings, GMC : No warppoints
Format settings, Matrix : Custom
Codec ID : XVID
Codec ID/Hint : XviD
Duration : 1h 20mn
Bit rate : 1 154 Kbps
Width : 720 pixels
Height : 400 pixels
Display aspect ratio : 16:9
Frame rate : 23.976 fps
Color space : YUV
Chroma subsampling : 4:2:0
Bit depth : 8 bits
Scan type : Progressive
Bits/(Pixel*Frame) : 0.167
Stream size : 666 MiB (89%)
Writing library : XviD 65
Audio
ID : 1
Format : MPEG Audio
Format version : Version 1
Format profile : Layer 3
Mode : Joint stereo
Mode extension : MS Stereo
Codec ID : 55
Codec ID/Hint : MP3
Duration : 1h 20mn
Bit rate mode : Constant
Bit rate : 128 Kbps
Channel(s) : 2 channels
Sampling rate : 48.0 KHz
Stream size : 73.9 MiB (10%)
Alignment : Aligned on interleaves
Interleave, duration : 42 ms (1.00 video frame)
Interleave, preload duration : 504 ms
Скачать

Скачать торрент!

Как скачивать? · Что такое торрент? · Рейтинг и ограничения

Сайт не распространяет и не хранит электронные версии произведений, а лишь предоставляет доступ к создаваемому пользователями каталогу ссылок на торрент-файлы, которые содержат только списки хеш-сумм

[Профиль] [ЛС]
Показать сообщения:    
Ответить на тему

Текущее время: Сегодня 20:11

Часовой пояс: GMT + 4



Вы не можете начинать темы
Вы не можете отвечать на сообщения
Вы не можете редактировать свои сообщения
Вы не можете удалять свои сообщения
Вы не можете голосовать в опросах
Вы не можете прикреплять файлы к сообщениям
Вы не можете скачивать файлы