Перед полуночью / Before Midnight (Ричард Линклейтер / Richard Linklater) [2013, США, драма, мелодрама, HDRip] VO (Михаил Чадов) + Original (Eng) + Sub (Rus)

Ответить на тему
 
Автор Сообщение

user ®

Стаж: 7 лет 7 месяцев

Сообщений: 20008

Пост Пост: #1 от 19-Ноя-2013 13:55

[Цитировать]

Перед полуночьюBefore Midnight- Страна: США
Жанр: драма, мелодрама
Год выпуска: 2013
Продолжительность: 01:48:54-Перевод: Одноголосый закадровый [Михаил Чадов]
Оригинальная аудиодорожка: английский
Субтитры: русские
Режиссер: Ричард Линклейтер / Richard Linklater
В ролях: Итан Хоук, Жюли Дельпи, Шеймас Дэви-Фицпатрик, Дженнифер Прайор, Шарлотта Прайор, Ксения Калогеропулу, Уолтер Лассали, Ариана Лабед, Яннис Пападопулос, Афина Рахель Цангари, Панос Коронис, Энрико Фокарди-Описание: Мы встречаем Джесси и Селин еще через 9 лет в Греции. Почти два десятилетия прошло с их первой встречи в поезде, направляющемся в Вену.-


MPAA: R - Лицам до 17 лет обязательно присутствие взрослого-

Доп. Информация

Сценарий: Ричард Линклейтер / Richard Linklater, Жюли Дельпи / Julie Delpy, Итан Хоук / Ethan Hawke, Ким Кризан / Kim Krizan
Продюсер: Сара Вудхэтч / Sara Woodhatch, Христос Константакопулос / Hristos Konstadakopoulos, Ричард Линклейтер / Richard Linklater, Лелия Андронику / Lelia Andronikou, Афина Рахель Цангари / Athina Rachel Tsangari
Оператор: Христос Вудурис / Christos Voudouris
Композитор: Грэхэм Рейнольдс / Graham Reynolds
Сборы в США: $8 112 146
Сборы в России: $58 089
Сборы в мире: $11 173 988
Мировая премьера: 20 января 2013
-Качество: HDRip [Рип с BDRip 720p]
Контейнер: AVI
Видео: XviD, 720x384 (1.875), 1782 kbps, 23,976 fps, 0,269 bpp
Аудио №1: Russian : AC3 / 5.1 / 48 kHz / 448 kbps / 16 bit
Аудио №2: English: AC3 / 5.1 / 48 kHz / 448 kbps / 16 bit
Формат субтитров: softsub (SRT)-

Знаете ли Вы, что...

  • Фильм посвящен памяти Эми, женщины, чей образ послужил основой для фильма «Перед рассветом» (1995). Ричард Линклейтер провел ночь, гуляя и разговаривая с ней в Филадельфии, но, в конце концов, они потеряли контакт. В промежутке между фильмами «Перед закатом» (2004) и «Перед полуночью» (2013) он, наконец, узнал, что Эми умерла много лет назад в ДТП, поэтому он посвятил фильм ей.

Media Info

General
Complete name : D:\Before.Midnight.2013.A1.HDRip\Before.Midnight.2013.A1.HDRip_2100MB.avi
Format : AVI
Format/Info : Audio Video Interleave
Format profile : OpenDML
File size : 2.05 GiB
Duration : 1h 48mn
Overall bit rate : 2 697 Kbps
Writing application : VirtualDubMod 1.5.10.2 (build 2540/release)
Writing library : VirtualDubMod build 2540/release
Video
ID : 0
Format : MPEG-4 Visual
Format profile : Advanced Simple@L5
Format settings, BVOP : 2
Format settings, QPel : No
Format settings, GMC : No warppoints
Format settings, Matrix : Custom
Codec ID : XVID
Codec ID/Hint : XviD
Duration : 1h 48mn
Bit rate : 1 783 Kbps
Width : 720 pixels
Height : 384 pixels
Display aspect ratio : 1.875
Frame rate : 23.976 fps
Color space : YUV
Chroma subsampling : 4:2:0
Bit depth : 8 bits
Scan type : Progressive
Compression mode : Lossy
Bits/(Pixel*Frame) : 0.269
Stream size : 1.36 GiB (66%)
Writing library : XviD 1.2.1 (UTC 2008-12-04)
Audio #1
ID : 1
Format : AC-3
Format/Info : Audio Coding 3
Mode extension : CM (complete main)
Codec ID : 2000
Duration : 1h 48mn
Bit rate mode : Constant
Bit rate : 448 Kbps
Channel(s) : 6 channels
Channel positions : Front: L C R, Side: L R, LFE
Sampling rate : 48.0 KHz
Bit depth : 16 bits
Compression mode : Lossy
Stream size : 349 MiB (17%)
Alignment : Split accross interleaves
Interleave, duration : 42 ms (1.00 video frame)
Interleave, preload duration : 500 ms
Audio #2
ID : 2
Format : AC-3
Format/Info : Audio Coding 3
Mode extension : CM (complete main)
Codec ID : 2000
Duration : 1h 48mn
Bit rate mode : Constant
Bit rate : 448 Kbps
Channel(s) : 6 channels
Channel positions : Front: L C R, Side: L R, LFE
Sampling rate : 48.0 KHz
Bit depth : 16 bits
Compression mode : Lossy
Stream size : 349 MiB (17%)
Alignment : Split accross interleaves
Interleave, duration : 42 ms (1.00 video frame)
Interleave, preload duration : 500 ms

Скриншот с названием фильма

Скриншоты

Скачать

Скачать торрент!

Как скачивать? · Что такое торрент? · Рейтинг и ограничения

Сайт не распространяет и не хранит электронные версии произведений, а лишь предоставляет доступ к создаваемому пользователями каталогу ссылок на торрент-файлы, которые содержат только списки хеш-сумм

[Профиль] [ЛС]
Показать сообщения:    
Ответить на тему

Текущее время: Сегодня 15:52

Часовой пояс: GMT + 4



Вы не можете начинать темы
Вы не можете отвечать на сообщения
Вы не можете редактировать свои сообщения
Вы не можете удалять свои сообщения
Вы не можете голосовать в опросах
Вы не можете прикреплять файлы к сообщениям
Вы не можете скачивать файлы