Лимб / Haunter (Винченцо Натали) [2013, Канада, Франция, Ужасы, Триллер, Детектив, DVDRip] Dub

Ответить на тему
 
Автор Сообщение

user ®

Стаж: 7 лет 7 месяцев

Сообщений: 20008

Пост Пост: #1 от 19-Ноя-2013 10:45

[Цитировать]

--Лимб / Haunter
«Не выходи из дома. Не зови на помощь. Не пытайся вырваться»
-- Страна: Канада | Франция
Студия: Canadian Audio-Visual Certification Office (CAVCO) | Canadian Film or Video Production Tax Credit (CPTC) | Copper Heart Entertainment
Слоган: «Не выходи из дома. Не зови на помощь. Не пытайся вырваться»
Жанр: Ужасы | Триллер | Детектив
Год выпуска: 2013
Продолжительность: 01:33:01
Перевод: Профессиональный (дублированный)
Cубтитры: Нет
Оригинальная аудиодорожка: Нет--Режиссер: Винченцо Натали / Vincenzo Natali--В ролях: Эбигейл Бреслин, Питер Аутербридж, Мишель Нолден, Стивен МакХэтти, Питер ДаКуна, Элинор Цихи, Дэвид Нолл, Саманта Вайнштейн, Дэвид Хьюлетт, Сара Мэннинен--Описание:
Сюжет разворачивается вокруг юной героини Лизы. Дом в котором она живет окутан туманом, семья не выходит из дома и живет монотонной жизнью. Но в скором времени, в доме начинает происходить череда странных и даже пугающих, для героини, событий, которые приведут ее к разгадке страшной тайны.-- | | --Знаете ли Вы, что... Среди главных источников вдохновения Винченцо Натали называл «Персону» Ингмара Бергмана.--Качество видео: DVDRip
Формат видео: AVI
Видео: XviD | 720x400 (16:9) | 1646 kb/s
Аудио: AC3 | 6 ch | 448 kb/s
-
-

Дополнительная информация:

Режиссер : Винченцо Натали
Сценарий: Брайан Кинг, Мэттью Брайан Кинг
Продюсер: Стивен Хобан, Винсент Мэрэвэл, Винченцо Натали, ...
Оператор: Джон Джоффин
Художник: Питер Коско, Йен Холл, Патрик Антош
Монтаж: Майкл Доэрти
Дата мировой премьеры: 9 марта 2013
Дата российской премьеры: 12 сентября 2013, «Вольга», «Премиум Фильм»
Дата выхода DVD релиза: 20 октября 2013, «CP Дистрибуция»
Дата выхода релиз на Blu-Ray: 24 октября 2013, «CP Дистрибуция»

-
-

MediaInfo

General
Complete name : D:\Фильмы\Limb.2013.DVDRip.avi
Format : AVI
Format/Info : Audio Video Interleave
File size : 1.37 GiB
Duration : 1h 33mn
Overall bit rate : 2 104 Kbps
Writing application : VirtualDubMod 1.5.10.2 (build 2540/release)
Writing library : VirtualDubMod build 2540/release
Video
ID : 0
Format : MPEG-4 Visual
Format profile : Advanced Simple@L5
Format settings, BVOP : 2
Format settings, QPel : No
Format settings, GMC : No warppoints
Format settings, Matrix : Custom
Codec ID : XVID
Codec ID/Hint : XviD
Duration : 1h 33mn
Bit rate : 1 646 Kbps
Width : 720 pixels
Height : 400 pixels
Display aspect ratio : 16:9
Frame rate : 25.000 fps
Color space : YUV
Chroma subsampling : 4:2:0
Bit depth : 8 bits
Scan type : Progressive
Compression mode : Lossy
Bits/(Pixel*Frame) : 0.229
Stream size : 1.07 GiB (78%)
Writing library : XviD 1.2.1 (UTC 2008-12-04)
Audio
ID : 1
Format : AC-3
Format/Info : Audio Coding 3
Mode extension : CM (complete main)
Format settings, Endianness : Big
Codec ID : 2000
Duration : 1h 33mn
Bit rate mode : Constant
Bit rate : 448 Kbps
Channel(s) : 6 channels
Channel positions : Front: L C R, Side: L R, LFE
Sampling rate : 48.0 KHz
Bit depth : 16 bits
Compression mode : Lossy
Stream size : 298 MiB (21%)
Alignment : Split accross interleaves
Interleave, duration : 40 ms (1.00 video frame)
Interleave, preload duration : 500 ms

Скриншот c названием фильма

Скриншоты


-
-
Скачать

Скачать торрент!

Как скачивать? · Что такое торрент? · Рейтинг и ограничения

Сайт не распространяет и не хранит электронные версии произведений, а лишь предоставляет доступ к создаваемому пользователями каталогу ссылок на торрент-файлы, которые содержат только списки хеш-сумм

[Профиль] [ЛС]
Показать сообщения:    
Ответить на тему

Текущее время: Сегодня 20:17

Часовой пояс: GMT + 4



Вы не можете начинать темы
Вы не можете отвечать на сообщения
Вы не можете редактировать свои сообщения
Вы не можете удалять свои сообщения
Вы не можете голосовать в опросах
Вы не можете прикреплять файлы к сообщениям
Вы не можете скачивать файлы