Росомаха: Бессмертный / The Wolverine (Джеймс Мэнголд / James Mangold) [2013, Фантастика, фэнтези, боевик, приключения, BDRip-AVC] [Театральная версия] Dub (iTunes ) + Sub (rus., eng.)

Ответить на тему
 
Автор Сообщение

user ®

Стаж: 7 лет 7 месяцев

Сообщений: 20008

Пост Пост: #1 от 19-Ноя-2013 07:35

[Цитировать]

Росомаха: Бессмертный / The Wolverine- Страна: Австралия, США / 20th Century Fox Film Corporation, Big Screen Productions, Donners' Company, Dune E
Жанр: Фантастика, фэнтези, боевик, приключения
Год выпуска: 2013
Продолжительность: 02:06:08-Перевод: Профессиональный (дублированный) iTunes
Cубтитры: русские (форс.), английские (полные + форс.)
Формат субтитров: softsub (SRT)
Оригинальная аудиодорожка: нет-Режиссер: Джеймс Мэнголд / James Mangold
В ролях: Хью Джекман, Тао Окамото, Рила Фукусима, Светлана Ходченкова, Уилл Юн Ли, Харукико Яманоути, Хироюки Санада, Брайан Ти, Кен Ямамура, Фамке Янссен
Описание: Герой полюбившегося зрителям киносериала «Люди Икс», мутант Росомаха, возвращается на экраны в шестой раз. По словам создателей, это не продолжение «Последней битвы», хотя в хронологическом смысле сюжет фильма «Росомаха: Бессмертный» вытекает из предыдущих частей. Действие происходит в Японии, и в центре фильма вовсе не абстрактное противостояние «хороших» и «плохих» парней, а вполне конкретная история любви Росомахи и Марико, дочери главы криминального японского клана. Логан, потерявший почти всех своих друзей, в глубине души винит себя за это. В таком подавленном и даже депрессивном состоянии он предстает перед зрителями в первый раз. Образовавшаяся пустота заполняется яростью – и внезапной любовью к девушке, за обладание которой герою придется сражаться со всем миром, с отцом и братом Марико, с претендентами на ее руку и сердце, с самураями и якудза. Результат этой борьбы непредсказуем, поэтому фильм порадует огромным количеством потрясающих и напряженных сцен, настоящим экшеном.-
Релиз от:
Автор рипа: potroks-Качество видео: BDRip-AVC [The Wolverine 2013 1080p 2-IN-1 BluRay AVC DTS-HD MA 7.1-PublicHD]
Формат видео: MKV
Видео: х.264, 972x404 (2,40:1), 23,976 fps, 1272 Кbps, 0.135 bit/pixel
Аудио: 48 kHz, AC3 Dolby Digital, 3/2 (L,C,R,l,r) + LFE ch, 384.00 kbps

MediaInfo

Общее
Уникальный идентификатор : 189834531374120124527418856999505371973 (0x8ED0CD043121A29391EC468B5F902345)
Полное имя : Rosomaha.Bessmertnyj.2013.Theatrical.RUS.BDRip.x264.-HELLYWOOD.mkv
Формат : Matroska
Версия формата : Version 4 / Version 2
Размер файла : 1,46 Гбайт
Продолжительность : 2 ч. 6 м.
Общий поток : 1654 Кбит/сек
Название фильма : HELLYWOOD - rip by potroks
Дата кодирования : UTC 2013-11-18 17:31:48
Программа кодирования : mkvmerge v5.9.0 ('On The Loose') built on Dec 15 2012 16:39:58
Библиотека кодирования : libebml v1.3.0 + libmatroska v1.4.0
Видео
Идентификатор : 1
Формат : AVC
Формат/Информация : Advanced Video Codec
Профиль формата : High@L4.1
Параметр CABAC формата : Да
Параметр ReFrames формата : 12 кадров
Идентификатор кодека : V_MPEG4/ISO/AVC
Продолжительность : 2 ч. 6 м.
Битрейт : 1272 Кбит/сек
Ширина : 972 пикселя
Высота : 404 пикселя
Соотношение сторон : 2,40:1
Режим частоты кадров : Постоянный
Частота кадров : 23,976 кадра/сек
Цветовое пространство : YUV
Субдискретизация насыщенности : 4:2:0
Битовая глубина : 8 бит
Тип развёртки : Прогрессивная
Бит/(Пиксели*Кадры) : 0.135
Размер потока : 1,09 Гбайт (75%)
Заголовок : The Wolverine
Библиотека кодирования : x264 core 130 r2273 b3065e6
Настройки программы : cabac=1 / ref=12 / deblock=1:-3:-3 / analyse=0x3:0x133 / me=umh / subme=11 / psy=1 / psy_rd=1.08:0.01 / mixed_ref=1 / me_range=48 / chroma_me=1 / trellis=2 / 8x8dct=1 / cqm=0 / deadzone=21,11 / fast_pskip=0 / chroma_qp_offset=-3 / threads=9 / lookahead_threads=6 / sliced_threads=0 / nr=0 / decimate=0 / interlaced=0 / bluray_compat=0 / constrained_intra=0 / bframes=13 / b_pyramid=2 / b_adapt=2 / b_bias=0 / direct=3 / weightb=1 / open_gop=0 / weightp=2 / keyint=250 / keyint_min=23 / scenecut=40 / intra_refresh=0 / rc_lookahead=60 / rc=2pass / mbtree=0 / bitrate=1272 / ratetol=1.0 / qcomp=0.70 / qpmin=0 / qpmax=69 / qpstep=4 / cplxblur=20.0 / qblur=0.5 / vbv_maxrate=20000 / vbv_bufsize=20000 / nal_hrd=none / ip_ratio=1.30 / pb_ratio=1.25 / aq=1:0.80
Язык : English
Default : Да
Forced : Нет
Аудио
Идентификатор : 2
Формат : AC-3
Формат/Информация : Audio Coding 3
Расширение режима : CM (complete main)
Параметр Endianness формата : Big
Идентификатор кодека : A_AC3
Продолжительность : 2 ч. 6 м.
Вид битрейта : Постоянный
Битрейт : 384 Кбит/сек
Каналы : 6 каналов
Расположение каналов : Front: L C R, Side: L R, LFE
Частота : 48,0 КГц
Битовая глубина : 16 бит
Метод сжатия : С потерями
Размер потока : 346 Мбайт (23%)
Заголовок : Dub | DD 5.1 @ 384 kbps - iTunes
Язык : Russian
Default : Да
Forced : Да
Текст #1
Идентификатор : 3
Формат : UTF-8
Идентификатор кодека : S_TEXT/UTF8
Идентификатор кодека/Информация : UTF-8 Plain Text
Заголовок : Forced
Язык : Russian
Default : Да
Forced : Да
Текст #2
Идентификатор : 4
Формат : UTF-8
Идентификатор кодека : S_TEXT/UTF8
Идентификатор кодека/Информация : UTF-8 Plain Text
Заголовок : Forced
Язык : English
Default : Нет
Forced : Нет
Текст #3
Идентификатор : 5
Формат : UTF-8
Идентификатор кодека : S_TEXT/UTF8
Идентификатор кодека/Информация : UTF-8 Plain Text
Заголовок : SDH
Язык : English
Default : Нет
Forced : Нет
Меню
00:00:00.000 : en:(01)00:00:00:000
00:05:03.720 : en:(02)00:05:03:720
00:07:39.667 : en:(03)00:07:39:667
00:08:40.436 : en:(04)00:08:40:436
00:10:25.499 : en:(05)00:10:25:499
00:13:56.794 : en:(06)00:13:56:794
00:16:49.299 : en:(07)00:16:49:299
00:19:13.068 : en:(08)00:19:13:068
00:22:03.321 : en:(09)00:22:03:321
00:26:38.304 : en:(10)00:26:38:304
00:28:53.398 : en:(11)00:28:53:398
00:30:21.402 : en:(12)00:30:21:402
00:33:43.145 : en:(13)00:33:43:145
00:38:08.244 : en:(14)00:38:08:244
00:42:42.309 : en:(15)00:42:42:309
00:44:19.072 : en:(16)00:44:19:072
00:47:06.740 : en:(17)00:47:06:740
00:52:38.279 : en:(18)00:52:38:279
00:54:37.315 : en:(19)00:54:37:315
01:00:06.477 : en:(20)01:00:06:477
01:06:16.221 : en:(21)01:06:16:221
01:11:36.959 : en:(22)01:11:36:959
01:16:25.205 : en:(23)01:16:25:205
01:19:30.807 : en:(24)01:19:30:807
01:22:34.574 : en:(25)01:22:34:574
01:27:33.205 : en:(26)01:27:33:205
01:30:37.139 : en:(27)01:30:37:139
01:33:00.032 : en:(28)01:33:00:032
01:36:33.203 : en:(29)01:36:33:203
01:40:14.216 : en:(30)01:40:14:216
01:43:04.511 : en:(31)01:43:04:511
01:46:07.569 : en:(32)01:46:07:569
01:51:06.075 : en:(33)01:51:06:075
01:53:01.482 : en:(34)01:53:01:482
01:55:50.776 : en:(35)01:55:50:776
01:57:21.450 : en:(36)01:57:21:450
02:06:08.310 : en:(37)02:06:08:310

Скриншоты

Скачать

Скачать торрент!

Как скачивать? · Что такое торрент? · Рейтинг и ограничения

Сайт не распространяет и не хранит электронные версии произведений, а лишь предоставляет доступ к создаваемому пользователями каталогу ссылок на торрент-файлы, которые содержат только списки хеш-сумм

[Профиль] [ЛС]
Показать сообщения:    
Ответить на тему

Текущее время: Сегодня 23:16

Часовой пояс: GMT + 4



Вы не можете начинать темы
Вы не можете отвечать на сообщения
Вы не можете редактировать свои сообщения
Вы не можете удалять свои сообщения
Вы не можете голосовать в опросах
Вы не можете прикреплять файлы к сообщениям
Вы не можете скачивать файлы