Объятие вампира / Embrace of the Vampire (Энн Гурсо / Anne Goursaud) [1995, США, ужасы, триллер, мистика, эротика, BDRip 720p] [Unrated] AVO (Сергей Визгунов) + Original Eng + Sub Eng

Ответить на тему
 
Автор Сообщение

user ®

Стаж: 7 лет 7 месяцев

Сообщений: 20008

Пост Пост: #1 от 19-Ноя-2013 02:25

[Цитировать]

Объятие вампира / Embrace of the Vampire (Unrated)
Страна: США
Студия: General Media Entertainment, New Line Cinema, The Ministry of Film Inc.
Жанр: ужасы, триллер, мистика, эротика
Год выпуска: 1995
Продолжительность: 01:32:39
Перевод: Авторский (одноголосый закадровый) Сергей Визгунов
Оригинальная аудиодорожка: английский
Cубтитры: английские (Простые + SDH)
Режиссер: Энн Гурсо / Anne Goursaud
В ролях: Алисса Милано (Alyssa Milano), Мартин Кемп (Martin Kemp), Харольд Пруэтт (Harold Pruett), Джордан Лэдд (Jordan Ladd), Рэйчел Тру (Rachel True), Шарлотта Льюис (Charlotte Lewis), Дженнифер Тилли (Jennifer Tilly)
Описание: Чтобы не уснуть вечным сном, у вампира есть три дня на то, чтобы соблазнить и заполучить душу юной девственницы Шарлотты. К сожалению у Шарлотты уже имеется приятель, поэтому вампир решает действовать через сны девушки.
Доп. информация: Рип от BRMP, аудиодорожка взята [url=http://***/forum/viewtopic.php?t=3713338]отсюда[/url]
Сэмпл: http://multi-up.com/924538
Тип релиза: BDRip 720p
Контейнер: MKV
Видео: 1280x688 (1.85:1), 23.976 fps, 6115 kbps
Аудио 1: Russian, AC3, 2ch, 48 kHz, 192 kbps
Аудио 2: English, AC3, 6ch, 48 kHz, 640 kbps
Формат субтитров: softsub (SRT)

MediaInfo

General
Unique ID : 225234291144608393101365440222304074387 (0xA9728BECC95025BE8EE373B19B26FA93)
Format : Matroska
Format version : Version 4 / Version 2
File size : 4.50 GiB
Duration : 1h 32mn
Overall bit rate : 6 946 Kbps
Encoded date : UTC 2013-11-18 17:28:40
Writing application : mkvmerge v6.5.0 ('Isn't she lovely') built on Oct 20 2013 12:50:05
Writing library : libebml v1.3.0 + libmatroska v1.4.1
Video
ID : 1
Format : AVC
Format/Info : Advanced Video Codec
Format profile : High@L4.1
Format settings, CABAC : Yes
Format settings, ReFrames : 5 frames
Codec ID : V_MPEG4/ISO/AVC
Duration : 1h 32mn
Bit rate : 6 115 Kbps
Width : 1 280 pixels
Height : 688 pixels
Display aspect ratio : 1.85:1
Frame rate mode : Constant
Frame rate : 23.976 fps
Color space : YUV
Chroma subsampling : 4:2:0
Bit depth : 8 bits
Scan type : Progressive
Bits/(Pixel*Frame) : 0.290
Stream size : 3.87 GiB (86%)
Title : BRMP
Writing library : x264 core 138 r2358 9e941d1
Encoding settings : cabac=1 / ref=5 / deblock=1:0:0 / analyse=0x3:0x133 / me=umh / subme=7 / psy=1 / psy_rd=1.00:0.00 / mixed_ref=1 / me_range=16 / chroma_me=1 / trellis=1 / 8x8dct=1 / cqm=0 / deadzone=21,11 / fast_pskip=0 / chroma_qp_offset=-2 / threads=12 / lookahead_threads=2 / sliced_threads=0 / nr=0 / decimate=1 / interlaced=0 / bluray_compat=0 / constrained_intra=0 / bframes=3 / b_pyramid=2 / b_adapt=1 / b_bias=0 / direct=1 / weightb=1 / open_gop=0 / weightp=2 / keyint=240 / keyint_min=23 / scenecut=40 / intra_refresh=0 / rc_lookahead=40 / rc=2pass / mbtree=1 / bitrate=6115 / ratetol=1.0 / qcomp=0.60 / qpmin=0 / qpmax=69 / qpstep=4 / cplxblur=20.0 / qblur=0.5 / ip_ratio=1.40 / aq=1:1.00
Language : English
Default : Yes
Forced : No
Audio #1
ID : 2
Format : AC-3
Format/Info : Audio Coding 3
Mode extension : CM (complete main)
Format settings, Endianness : Big
Codec ID : A_AC3
Duration : 1h 32mn
Bit rate mode : Constant
Bit rate : 192 Kbps
Channel(s) : 2 channels
Channel positions : Front: L R
Sampling rate : 48.0 KHz
Bit depth : 16 bits
Compression mode : Lossy
Delay relative to video : 6s 966ms
Stream size : 127 MiB (3%)
Title : AVO (Сергей Визгунов)
Language : Russian
Default : Yes
Forced : No
Audio #2
ID : 3
Format : AC-3
Format/Info : Audio Coding 3
Mode extension : CM (complete main)
Format settings, Endianness : Big
Codec ID : A_AC3
Duration : 1h 32mn
Bit rate mode : Constant
Bit rate : 640 Kbps
Channel(s) : 6 channels
Channel positions : Front: L C R, Side: L R, LFE
Sampling rate : 48.0 KHz
Bit depth : 16 bits
Compression mode : Lossy
Stream size : 424 MiB (9%)
Language : English
Default : No
Forced : No
Text #1
ID : 4
Format : UTF-8
Codec ID : S_TEXT/UTF8
Codec ID/Info : UTF-8 Plain Text
Language : English
Default : No
Forced : No
Text #2
ID : 5
Format : UTF-8
Codec ID : S_TEXT/UTF8
Codec ID/Info : UTF-8 Plain Text
Title : SDH
Language : English
Default : No
Forced : No
Menu
00:00:00.000 : en:Chapter 1
00:07:15.768 : en:Chapter 2
00:14:19.066 : en:Chapter 3
00:23:30.617 : en:Chapter 4
00:30:08.181 : en:Chapter 5
00:38:25.636 : en:Chapter 6
00:45:24.304 : en:Chapter 7
00:53:41.593 : en:Chapter 8
01:04:14.851 : en:Chapter 9
01:12:41.273 : en:Chapter 10
01:21:35.098 : en:Chapter 11
01:30:08.403 : en:Chapter 12
01:32:39.303 : en:Chapter 13

Скриншоты

Скачать

Скачать торрент!

Как скачивать? · Что такое торрент? · Рейтинг и ограничения

Сайт не распространяет и не хранит электронные версии произведений, а лишь предоставляет доступ к создаваемому пользователями каталогу ссылок на торрент-файлы, которые содержат только списки хеш-сумм

[Профиль] [ЛС]
Показать сообщения:    
Ответить на тему

Текущее время: Сегодня 15:53

Часовой пояс: GMT + 4



Вы не можете начинать темы
Вы не можете отвечать на сообщения
Вы не можете редактировать свои сообщения
Вы не можете удалять свои сообщения
Вы не можете голосовать в опросах
Вы не можете прикреплять файлы к сообщениям
Вы не можете скачивать файлы