Пегги Сью вышла замуж / Peggy Sue Got Married (Френсис Форд Коппола / Francis Ford Coppola) [1986, США, фэнтези, драма, мелодрама, BDRip 720p] MVO + DVO + AVO (Михалёв) + Original (Eng) + Subs (Rus, Eng)

Ответить на тему
 
Автор Сообщение

user ®

Стаж: 7 лет 7 месяцев

Сообщений: 20008

Пост Пост: #1 от 19-Ноя-2013 02:25

[Цитировать]

Пегги Сью вышла замужPeggy Sue Got Married«Knowing what you know now, what would you do differently?»- Страна: США
Жанр: фэнтези, драма, мелодрама, комедия, музыка
Год выпуска: 1986
Продолжительность: 01:43:08-Перевод 1: Профессиональный (многоголосый, закадровый) (Первый канал)
Перевод 2: Профессиональный (двухголосый) (Кармен Видео)
Перевод 3: Авторский (одноголосый) (Михалев Алексей)
Оригинальная аудиодорожка: английский
Субтитры: русские, английские
Режиссер: Френсис Форд Коппола / Francis Ford Coppola
В ролях: Кэтлин Тёрнер, Николас Кейдж, Бэрри Миллер, Кэтрин Хикс, Джоан Аллен, Кевин Дж. О’Коннор, Джим Керри, Лиза Джейн Перски, Люсинда Дженни, Уил Шрайнер, Барбара Харрис, Дон Мюррэй-Описание: Иногда очень хочется прожить жизнь заново. Во всяком случае - кое-что подправить. У Пегги Сью всё хорошо - есть милые дети, есть работа. Вот только брак трещит по швам. Сразу после развода Пегги отправляется на бал выпускников школы, где ее с восторгом выбирают королевой.
Это дает ей шанс вернуться в конец 1950-х, когда «Бич Бойз» пели песенку «Красотка Пегги Сью», а жизнь казалась такой безоблачной. Вновь очутившись на заре прекрасной юности, Пегги встречает своих родителей, а самое главное - юного Чарли. И понимает, что все было не напрасно...-


MPAA: PG-13 - Детям до 13 лет просмотр не желателен-

Доп. Информация

Сценарий: Джерри Лайктлинг / Jerry Leichtling, Арлин Сарнер / Arlene Sarner
Продюсер: Пол Р. Гуриан / Paul R. Gurian, Барри М. Осборн / Barrie M. Osborne
Оператор: Джордан Кроненвет / Jordan Cronenweth
Композитор: Джон Бэрри / John Barry, Бадди Холли / Buddy Holly
Бюджет: $18 000 000
Сборы в США: $41 382 841
Мировая премьера: 5 октября 1986
-Качество: BDRip 720p (Исходник BD Remux 1080p)
Контейнер: MKV
Видео: AVC, 1280x692 (1.850), 8935 kbps, 23,976 fps, 0,421 bpp
Аудио №1: английский / DTS / 5.1 / 48 kHz / 1510 kbps / 16 bit
Аудио №2: русский / AC3 / 2.0 / 48 kHz / 192 kbps / 16 bit || MVO (Первый канал)
Аудио №3: русский / AC3 / 2.0 / 48 kHz / 192 kbps / 16 bit || DVO (Кармен Видео)
Аудио №4: русский / AC3 / 2.0 / 48 kHz / 192 kbps / 16 bit || AVO (Михалев)
Формат субтитров: softsub (SRT)
Навигация по главам: есть-

Media Info

Общее
Уникальный идентификатор : 198057678634164346706637010563655185286 (0x9500857A73FEC41385351BAF46DEB386)
Полное имя : G:\PAGGY.SUE.1986.BDRip.720p.mkv
Формат : Matroska
Версия формата : Version 2
Размер файла : 8,10 Гбайт
Продолжительность : 1 ч. 43 м.
Общий поток : 11,2 Мбит/сек
Дата кодирования : UTC 2013-11-17 15:20:05
Программа кодирования : mkvmerge v5.8.0 ('No Sleep / Pillow') built on Sep 2 2012 15:37:04
Библиотека кодирования : libebml v1.2.3 + libmatroska v1.3.0
Видео
Идентификатор : 1
Формат : AVC
Формат/Информация : Advanced Video Codec
Профиль формата : High@L4.1
Параметр CABAC формата : Да
Параметр ReFrames формата : 9 кадров
Идентификатор кодека : V_MPEG4/ISO/AVC
Продолжительность : 1 ч. 43 м.
Битрейт : 8936 Кбит/сек
Ширина : 1280 пикселей
Высота : 692 пикселя
Соотношение сторон : 1,85:1
Режим частоты кадров : Постоянный
Частота кадров : 23,976 кадра/сек
Цветовое пространство : YUV
Субдискретизация насыщенности : 4:2:0
Битовая глубина : 8 бит
Тип развёртки : Прогрессивная
Бит/(Пиксели*Кадры) : 0.421
Размер потока : 6,44 Гбайт (79%)
Библиотека кодирования : x264 core 138 r2358 9e941d1
Настройки программы : cabac=1 / ref=9 / deblock=1:-1:-1 / analyse=0x3:0x113 / me=umh / subme=10 / psy=1 / psy_rd=1.00:0.15 / mixed_ref=1 / me_range=48 / chroma_me=1 / trellis=2 / 8x8dct=1 / cqm=0 / deadzone=21,11 / fast_pskip=1 / chroma_qp_offset=-3 / threads=12 / lookahead_threads=3 / sliced_threads=0 / nr=0 / decimate=1 / interlaced=0 / bluray_compat=0 / constrained_intra=0 / bframes=13 / b_pyramid=2 / b_adapt=2 / b_bias=0 / direct=3 / weightb=1 / open_gop=0 / weightp=2 / keyint=250 / keyint_min=24 / scenecut=40 / intra_refresh=0 / rc_lookahead=40 / rc=crf / mbtree=0 / crf=17.8 / qcomp=0.60 / qpmin=0 / qpmax=69 / qpstep=4 / vbv_maxrate=50000 / vbv_bufsize=62500 / crf_max=0.0 / nal_hrd=none / ip_ratio=1.40 / pb_ratio=1.30 / aq=2:1.00
Язык : English
Default : Да
Forced : Нет
Аудио #1
Идентификатор : 2
Формат : DTS
Формат/Информация : Digital Theater Systems
Режим : 16
Параметр Endianness формата : Big
Идентификатор кодека : A_DTS
Продолжительность : 1 ч. 43 м.
Вид битрейта : Постоянный
Битрейт : 1509 Кбит/сек
Каналы : 6 каналов
Расположение каналов : Front: L C R, Side: L R, LFE
Частота : 48,0 КГц
Битовая глубина : 16 бит
Метод сжатия : С потерями
Размер потока : 1,09 Гбайт (13%)
Заголовок : English
Язык : English
Default : Нет
Forced : Нет
Аудио #2
Идентификатор : 3
Формат : AC-3
Формат/Информация : Audio Coding 3
Расширение режима : CM (complete main)
Параметр Endianness формата : Big
Идентификатор кодека : A_AC3
Продолжительность : 1 ч. 43 м.
Вид битрейта : Постоянный
Битрейт : 192 Кбит/сек
Каналы : 2 канала
Расположение каналов : Front: L R
Частота : 48,0 КГц
Битовая глубина : 16 бит
Метод сжатия : С потерями
Размер потока : 142 Мбайт (2%)
Заголовок : MVO (Первый канал)
Язык : Russian
Default : Да
Forced : Нет
Аудио #3
Идентификатор : 4
Формат : AC-3
Формат/Информация : Audio Coding 3
Расширение режима : CM (complete main)
Параметр Endianness формата : Big
Идентификатор кодека : A_AC3
Продолжительность : 1 ч. 43 м.
Вид битрейта : Постоянный
Битрейт : 192 Кбит/сек
Каналы : 2 канала
Расположение каналов : Front: L R
Частота : 48,0 КГц
Битовая глубина : 16 бит
Метод сжатия : С потерями
Размер потока : 142 Мбайт (2%)
Заголовок : DVO (Кармен Видео)
Язык : Russian
Default : Нет
Forced : Нет
Аудио #4
Идентификатор : 5
Формат : AC-3
Формат/Информация : Audio Coding 3
Расширение режима : CM (complete main)
Параметр Endianness формата : Big
Идентификатор кодека : A_AC3
Продолжительность : 1 ч. 43 м.
Вид битрейта : Постоянный
Битрейт : 192 Кбит/сек
Каналы : 2 канала
Расположение каналов : Front: L R
Частота : 48,0 КГц
Битовая глубина : 16 бит
Метод сжатия : С потерями
Размер потока : 142 Мбайт (2%)
Заголовок : AVO (Михалев)
Язык : Russian
Default : Нет
Forced : Нет
Текст #1
Идентификатор : 6
Формат : UTF-8
Идентификатор кодека : S_TEXT/UTF8
Идентификатор кодека/Информация : UTF-8 Plain Text
Язык : Russian
Default : Нет
Forced : Нет
Текст #2
Идентификатор : 7
Формат : UTF-8
Идентификатор кодека : S_TEXT/UTF8
Идентификатор кодека/Информация : UTF-8 Plain Text
Язык : English
Default : Нет
Forced : Нет
Меню
00:00:00.000 : :Chapter 01
00:05:00.000 : :Chapter 02
00:10:00.000 : :Chapter 03
00:15:00.000 : :Chapter 04
00:20:00.000 : :Chapter 05
00:25:00.000 : :Chapter 06
00:30:00.000 : :Chapter 07
00:35:00.000 : :Chapter 08
00:40:00.000 : :Chapter 09
00:45:00.000 : :Chapter 10
00:50:00.000 : :Chapter 11
00:55:00.000 : :Chapter 12
01:00:00.000 : :Chapter 13
01:05:00.000 : :Chapter 14
01:10:00.000 : :Chapter 15
01:15:00.000 : :Chapter 16
01:20:00.000 : :Chapter 17
01:25:00.000 : :Chapter 18
01:30:00.000 : :Chapter 19
01:35:00.000 : :Chapter 20
01:40:00.000 : :Chapter 21

х264

x264 [info]: frame I:793 Avg QP:17.39 size:124918
x264 [info]: frame P:27048 Avg QP:18.44 size: 77642
x264 [info]: frame B:120527 Avg QP:20.45 size: 40520
x264 [info]: consecutive B-frames: 0.9% 0.7% 2.1% 12.7% 17.7% 44.0% 9.9% 6.1% 2.8% 1.9% 0.6% 0.3% 0.1% 0.2%
x264 [info]: mb I I16..4: 5.6% 81.6% 12.8%
x264 [info]: mb P I16..4: 0.4% 34.8% 3.3% P16..4: 22.7% 24.4% 13.8% 0.0% 0.0% skip: 0.6%
x264 [info]: mb B I16..4: 0.0% 7.5% 0.4% B16..8: 38.1% 21.6% 8.0% direct:13.3% skip:11.1% L0:46.0% L1:38.9% BI:15.2%
x264 [info]: 8x8 transform intra:92.0% inter:54.8%
x264 [info]: direct mvs spatial:100.0% temporal:0.0%
x264 [info]: coded y,uvDC,uvAC intra: 97.4% 95.9% 83.6% inter: 64.3% 47.3% 7.2%
x264 [info]: i16 v,h,dc,p: 19% 7% 26% 48%
x264 [info]: i8 v,h,dc,ddl,ddr,vr,hd,vl,hu: 11% 6% 13% 10% 13% 13% 10% 12% 11%
x264 [info]: i4 v,h,dc,ddl,ddr,vr,hd,vl,hu: 36% 4% 5% 7% 11% 12% 8% 9% 7%
x264 [info]: i8c dc,h,v,p: 52% 15% 17% 16%
x264 [info]: Weighted P-Frames: Y:7.2% UV:3.7%
x264 [info]: ref P L0: 32.9% 10.6% 21.3% 8.2% 8.6% 5.4% 6.0% 3.1% 3.7% 0.4% 0.0%
x264 [info]: ref B L0: 63.7% 14.5% 7.9% 4.9% 3.6% 3.2% 1.6% 0.5%
x264 [info]: ref B L1: 91.7% 8.3%
x264 [info]: kb/s:9156.71

Скриншоты

Скачать

Скачать торрент!

Как скачивать? · Что такое торрент? · Рейтинг и ограничения

Сайт не распространяет и не хранит электронные версии произведений, а лишь предоставляет доступ к создаваемому пользователями каталогу ссылок на торрент-файлы, которые содержат только списки хеш-сумм

[Профиль] [ЛС]
Показать сообщения:    
Ответить на тему

Текущее время: Сегодня 06:09

Часовой пояс: GMT + 4



Вы не можете начинать темы
Вы не можете отвечать на сообщения
Вы не можете редактировать свои сообщения
Вы не можете удалять свои сообщения
Вы не можете голосовать в опросах
Вы не можете прикреплять файлы к сообщениям
Вы не можете скачивать файлы