Нет / No (Пабло Ларраин / Pablo Larrain) [2012, Чили, историческая драма, BDRip 720p] MVO + sub rus + original spa

Ответить на тему
 
Автор Сообщение

user ®

Стаж: 7 лет 7 месяцев

Сообщений: 20008

Пост Пост: #1 от 18-Ноя-2013 23:15

[Цитировать]

НЕТ — NO-Страна: Чили
Студия: Participant Media
Жанр: историческая драма
Режиссер: Пабло Ларраин
Год выпуска: 2012
Продолжительность: 01:57:56
Перевод 1: профессиональный, многоголосый закадровый (Кино без границ)
Перевод 2: субтитры (Кино без границ)
Оригинальная аудиодорожка: испанский
В ролях: Гаэль Гарсия Берналь, Альфредо Кастро, Луис Гнекко, Нестор Кантильяна, Антония Сехерс, Марсьяль Тагле, Паскаль Монтеро, Хайме Вадель
Описание: Когда чилийский военный диктатор Аугусто Пиночет под давлением международной общественности объявляет в 1988 году референдум о продлении своих президентских полномочий, лидеры оппозиции уговаривают встать во главе своей кампании дерзкого молодого рекламщика Рене Сааведру (Берналь).
Обладая ограниченными ресурсами и под неусыпным надзором стражей деспота, Сааведра со своей командой разрабатывают оригинальный план, как выиграть выборы и освободить страну от тирании. И, что самое потрясающее, план начинает работать!
Доп. информация: Фильм снят на магнитную пленку U-matic, что соответствующим образом сказалось на качестве видео. Рип выполнен с Blu-ray американского издания.
Бонусы: аудиокомментарии на английском.
Тип релиза: BDRip 720p
Контейнер: MKV
Меню: нет
Видео: AVC NTSC 1008x720, 7338 кбит/с, 23,976 к/с
Аудио 1: испанский, оригинал, DTS 5.1, 48 кГц, 1509 кбит/с
Аудио 2: русский, Кино без границ, AC-3 5.1, 48 кГц, 448 кбит/с
Аудио 3: английский, комментарии, AC-3 2.0, 48 кГц, 192 кбит/с
Формат субтитров: softsub (SRT)
Сэмпл

MediaInfo

General
Unique ID : 180128059977985977106636031031907864595 (0x8783670732F2F302A6C791631C065013)
Complete name : C:\MyTorrents\NO.mkv
Format : Matroska
Format version : Version 4 / Version 2
File size : 7.81 GiB
Duration : 1h 57mn
Overall bit rate : 9 486 Kbps
Encoded date : UTC 2013-11-17 21:29:40
Writing application : mkvmerge v6.5.0 ('Isn't she lovely') built on Oct 20 2013 12:50:05
Writing library : libebml v1.3.0 + libmatroska v1.4.1
Video
ID : 1
Format : AVC
Format/Info : Advanced Video Codec
Format profile : High@L4.1
Format settings, CABAC : Yes
Format settings, ReFrames : 11 frames
Codec ID : V_MPEG4/ISO/AVC
Duration : 1h 57mn
Bit rate : 7 338 Kbps
Width : 1 008 pixels
Height : 720 pixels
Display aspect ratio : 1.400
Frame rate mode : Constant
Frame rate : 23.976 fps
Color space : YUV
Chroma subsampling : 4:2:0
Bit depth : 8 bits
Scan type : Progressive
Bits/(Pixel*Frame) : 0.422
Stream size : 5.89 GiB (75%)
Writing library : x264 core 133 r2334 a3ac64b
Encoding settings : cabac=1 / ref=11 / deblock=1:-1:-1 / analyse=0x3:0x133 / me=tesa / subme=11 / psy=1 / psy_rd=1.00:0.15 / mixed_ref=1 / me_range=24 / chroma_me=1 / trellis=2 / 8x8dct=1 / cqm=0 / deadzone=21,11 / fast_pskip=0 / chroma_qp_offset=-3 / threads=9 / lookahead_threads=2 / sliced_threads=0 / nr=0 / decimate=1 / interlaced=0 / bluray_compat=0 / constrained_intra=0 / bframes=16 / b_pyramid=2 / b_adapt=2 / b_bias=0 / direct=3 / weightb=1 / open_gop=0 / weightp=2 / keyint=240 / keyint_min=23 / scenecut=40 / intra_refresh=0 / rc_lookahead=60 / rc=2pass / mbtree=1 / bitrate=7338 / ratetol=1.0 / qcomp=0.60 / qpmin=0 / qpmax=69 / qpstep=4 / cplxblur=20.0 / qblur=0.5 / vbv_maxrate=62500 / vbv_bufsize=78125 / nal_hrd=none / ip_ratio=1.40 / aq=1:1.00
Language : Spanish
Default : Yes
Forced : No
Audio #1
ID : 2
Format : DTS
Format/Info : Digital Theater Systems
Mode : 16
Format settings, Endianness : Big
Codec ID : A_DTS
Duration : 1h 57mn
Bit rate mode : Constant
Bit rate : 1 509 Kbps
Channel count : 6 channels
Channel positions : Front: L C R, Side: L R, LFE
Sampling rate : 48.0 KHz
Bit depth : 24 bits
Compression mode : Lossy
Stream size : 1.24 GiB (16%)
Language : Spanish
Default : Yes
Forced : No
Audio #2
ID : 3
Format : AC-3
Format/Info : Audio Coding 3
Mode extension : CM (complete main)
Format settings, Endianness : Big
Codec ID : A_AC3
Duration : 1h 57mn
Bit rate mode : Constant
Bit rate : 448 Kbps
Channel count : 6 channels
Channel positions : Front: L C R, Side: L R, LFE
Sampling rate : 48.0 KHz
Bit depth : 16 bits
Compression mode : Lossy
Stream size : 378 MiB (5%)
Language : Russian
Default : No
Forced : No
Audio #3
ID : 4
Format : AC-3
Format/Info : Audio Coding 3
Format profile : Dolby Digital
Mode extension : CM (complete main)
Format settings, Endianness : Big
Codec ID : A_AC3
Duration : 1h 57mn
Bit rate mode : Constant
Bit rate : 192 Kbps
Channel count : 2 channels
Channel positions : Front: L R
Sampling rate : 48.0 KHz
Bit depth : 16 bits
Compression mode : Lossy
Stream size : 162 MiB (2%)
Title : commentary
Language : English
Default : No
Forced : No
Text
ID : 5
Format : UTF-8
Codec ID : S_TEXT/UTF8
Codec ID/Info : UTF-8 Plain Text
Language : Russian
Default : Yes
Forced : No
Menu
00:00:00.000 : :Chapter 01
00:06:48.408 : :Chapter 02
00:14:11.225 : :Chapter 03
00:19:57.362 : :Chapter 04
00:26:44.144 : :Chapter 05
00:32:57.684 : :Chapter 06
00:42:19.411 : :Chapter 07
00:48:40.500 : :Chapter 08
00:56:58.915 : :Chapter 09
01:06:44.417 : :Chapter 10
01:13:35.494 : :Chapter 11
01:18:52.227 : :Chapter 12
01:24:45.246 : :Chapter 13
01:35:04.573 : :Chapter 14
01:42:13.335 : :Chapter 15
01:50:17.027 : :Chapter 16

Скриншоты

Скачать

Скачать торрент!

Как скачивать? · Что такое торрент? · Рейтинг и ограничения

Сайт не распространяет и не хранит электронные версии произведений, а лишь предоставляет доступ к создаваемому пользователями каталогу ссылок на торрент-файлы, которые содержат только списки хеш-сумм

[Профиль] [ЛС]
Показать сообщения:    
Ответить на тему

Текущее время: Сегодня 15:56

Часовой пояс: GMT + 4



Вы не можете начинать темы
Вы не можете отвечать на сообщения
Вы не можете редактировать свои сообщения
Вы не можете удалять свои сообщения
Вы не можете голосовать в опросах
Вы не можете прикреплять файлы к сообщениям
Вы не можете скачивать файлы