Телекинез / Carrie (Кимберли Пирс / Kimberly Peirce) [2013, США, триллер, ужасы, драма, CamRip] Dub

Ответить на тему
 
Автор Сообщение

user ®

Стаж: 7 лет 7 месяцев

Сообщений: 20008

Пост Пост: #1 от 18-Ноя-2013 23:15

[Цитировать]

Телекинез / Carrie
Страна: США
Жанр: триллер, ужасы, драма
Год выпуска: 2013
Продолжительность: 01:30:27
Перевод: Профессиональный (дублированный)
Cубтитры: нет
Оригинальная аудиодорожка: нет
Режиссер: Кимберли Пирс / Kimberly Peirce
В ролях: Хлоя Грейс Морец (Carrie White), Джулианна Мур (Margaret White), Джуди Грир (Ms. Desjardin), Портия Даблдэй (Chris Hargensen), Габриэлла Уайлд (Sue Snell), Алекс Расселл (Billy Nolan), Зои Белкин (Tina), Энсел Эльгорт (Tommy Ross), Саманта Вайнштейн (Heather), Карисса Стрэйн (Nicki), Кэти Стрэйн (Lizzy), Бэрри Шебака Хенли (Principal Morton)
Описание: Невзрачная старшеклассница по имени Кэрри с рождения обладает способностями телекинеза. Давление со стороны фанатично религиозной мамочки и постоянные издевки сверстников лишь способствует развитию ее сверхъестественных способностей. На выпускном одноклассники решают жестоко подшутить над ней, что приводит к фатальным последствиям.
Сэмпл: http://sendfile.su/897854
Качество видео: CamRip
Формат видео: AVI
Видео: 935 Kbps, 720х304 (2.35:1), 29.970 fps
Аудио: MP3, 128 Kbps, 2 ch, 48.0 KHz

MediaInfo

Format : AVI
Format/Info : Audio Video Interleave
File size : 695 MiB
Duration : 1h 30mn
Overall bit rate : 1 074 Kbps
Writing library : VirtualDub build 35390/release
Video
ID : 0
Format : MPEG-4 Visual
Format profile : Advanced Simple@L5
Format settings, BVOP : 2
Format settings, QPel : No
Format settings, GMC : No warppoints
Format settings, Matrix : Default (H.263)
Codec ID : XVID
Codec ID/Hint : XviD
Duration : 1h 30mn
Bit rate : 935 Kbps
Width : 720 pixels
Height : 304 pixels
Display aspect ratio : 2.35:1
Frame rate : 29.970 fps
Color space : YUV
Chroma subsampling : 4:2:0
Bit depth : 8 bits
Scan type : Progressive
Compression mode : Lossy
Bits/(Pixel*Frame) : 0.143
Stream size : 605 MiB (87%)
Writing library : XviD 1.2.1 (UTC 2008-12-04)
Audio
ID : 1
Format : MPEG Audio
Format version : Version 1
Format profile : Layer 3
Mode : Joint stereo
Mode extension : MS Stereo
Codec ID : 55
Codec ID/Hint : MP3
Duration : 1h 30mn
Bit rate mode : Constant
Bit rate : 128 Kbps
Channel(s) : 2 channels
Sampling rate : 48.0 KHz
Compression mode : Lossy
Stream size : 82.8 MiB (12%)
Alignment : Split accross interleaves
Interleave, duration : 33 ms (1.00 video frame)
Interleave, preload duration : 500 ms

Скриншот c названием фильма

Скриншоты

Скачать

Скачать торрент!

Как скачивать? · Что такое торрент? · Рейтинг и ограничения

Сайт не распространяет и не хранит электронные версии произведений, а лишь предоставляет доступ к создаваемому пользователями каталогу ссылок на торрент-файлы, которые содержат только списки хеш-сумм

[Профиль] [ЛС]
Показать сообщения:    
Ответить на тему

Текущее время: Сегодня 09:52

Часовой пояс: GMT + 4



Вы не можете начинать темы
Вы не можете отвечать на сообщения
Вы не можете редактировать свои сообщения
Вы не можете удалять свои сообщения
Вы не можете голосовать в опросах
Вы не можете прикреплять файлы к сообщениям
Вы не можете скачивать файлы