Волшебная радуга (Э. Авакян) [1979, Арменфильм, рисованная анимация, TeleSynch]

Ответить на тему
 
Автор Сообщение

user ®

Стаж: 7 лет 7 месяцев

Сообщений: 20008

Пост Пост: #1 от 18-Ноя-2013 16:55

[Цитировать]

Волшебная радуга
Страна: СССР
Жанр: рисованная анимация
Продолжительность: 00:09:00
Год выпуска: 1979
Режиссёр: Э. Авакян
Описание: Мальчик и девочка играют, строя песочные замки. Вдруг прибежал хулиган, разрушил все замки и отнял у ребят игрушки. Дети не смогли противостоять хулигану. Неожиданно начинается сильный дождь с грозой, а после дождя появляется прекрасная радуга. Девочка рассказывает, что если пройти под радугой, то станешь смелым и сильным. Дети решают пойти к радуге. Но радуга всё дальше и дальше оказывается от них. И пока они шли, сами выросли и стали смелыми и сильными.
Доп. информация: Фильм оцифрован с киноплёнки 16-мм
Качество: TeleSynch
Формат: AVI
Видео: XviD, 4:3, 720х544, 25 fps, 1511 kbps
Аудио: МР-3, 48 кHz, 128 kbps, 2 ch (моно)
Субтитры: нет

Подробные технические данные

ОбщееПолное имя : Волшебная радуга.aviФормат : AVIФормат/Информация : Audio Video InterleaveРазмер файла : 99,7 МбайтПродолжительность : 9 м. 0 с.Общий поток : 1548 Кбит/секПрограмма кодирования : VirtualDubMod 1.5.4.1 (build 2178/release)Библиотека кодирования : VirtualDubMod build 2178/release
ВидеоИдентификатор : 0Формат : MPEG-4 VisualПрофиль формата : Advanced Simple@L5Параметр BVOP формата : 1Параметр QPel формата : НетПараметр GMC формата : Без точки переходаПараметр матрицы формата : ВыборочнаяИдентификатор кодека : XVIDИдентификатор кодека/Подсказка : XviDПродолжительность : 9 м. 0 с.Битрейт : 1413 Кбит/секШирина : 720 пикселейВысота : 544 пикселяСоотношение сторон : 4:3Частота кадров : 25,000 кадров/секЦветовое пространство : YUVСубдискретизация насыщенности : 4:2:0Битовая глубина : 8 битТип развёртки : ПрогрессивнаяМетод сжатия : С потерямиБит/(Пиксели*Кадры) : 0.144Размер потока : 90,9 Мбайт (91%)Библиотека кодирования : XviD 1.2.1 (UTC 2008-12-04)
АудиоИдентификатор : 1Формат : MPEG AudioВерсия формата : Version 1Профиль формата : Layer 3Режим : Joint stereoИдентификатор кодека : 55Идентификатор кодека/Подсказка : MP3Продолжительность : 8 м. 59 с.Вид битрейта : ПостоянныйБитрейт : 128 Кбит/секКаналы : 2 каналаЧастота : 48,0 КГцМетод сжатия : С потерямиРазмер потока : 8,24 Мбайт (8%)Выравнивание : Соединение по промежуткамПродолжительность промежутка : 80 мс. (2,00 видеокадра)Время предзагрузки промежутка : 504 мс.Библиотека кодирования : LAME3.98rНастройки программы : -m j -V 4 -q 2 -lowpass 17 -b 128

Скриншоты

, , ,
Скачать

Скачать торрент!

Как скачивать? · Что такое торрент? · Рейтинг и ограничения

Сайт не распространяет и не хранит электронные версии произведений, а лишь предоставляет доступ к создаваемому пользователями каталогу ссылок на торрент-файлы, которые содержат только списки хеш-сумм

[Профиль] [ЛС]
Показать сообщения:    
Ответить на тему

Текущее время: Сегодня 15:38

Часовой пояс: GMT + 4



Вы не можете начинать темы
Вы не можете отвечать на сообщения
Вы не можете редактировать свои сообщения
Вы не можете удалять свои сообщения
Вы не можете голосовать в опросах
Вы не можете прикреплять файлы к сообщениям
Вы не можете скачивать файлы