Место под соснами / The Place Beyond the Pines (Дерек Сиенфрэнс / Derek Cianfrance) [2012, США, драма, криминал, BDRip 720p] Dub + VO (А. Киреев) + Original (Eng) + Sub (Rus, Eng)

Ответить на тему
 
Автор Сообщение

user ®

Стаж: 7 лет 7 месяцев

Сообщений: 20008

Пост Пост: #1 от 18-Ноя-2013 02:00

[Цитировать]

Место под соснами / The Place Beyond the Pines

-
-Страна: США
Студия: Electric City Entertainment, Focus Features, Hunting Lane Films, Pines Productions, Sidney Kimmel Entertainment, Silverwood Films, Verisimilitude
Жанр: драма, криминал
Год выпуска: 2012
Продолжительность: 02:20:30--Перевод 1: Профессиональный (дублированный) Blu-ray
Перевод 2: Одноголосый закадровый А. Киреев по переводу Алексея Doctor_Joker Матвеева
Cубтитры: русские, английские
Оригинальная аудиодорожка: английский--Режиссер: Дерек Сиенфрэнс / Derek Cianfrance
В ролях: Брэдли Купер, Райан Гослинг, Ева Мендес, Дэйн ДеХаан, Эмори Коэн, Бен Мендельсон, Роуз Бирн, Махершалалхашбаз Али, Рэй Лиотта, Харрис Юлин, Брюс Гринвуд, Крэйг Ван Хук--Описание: Мотокаскадер Люк Глэнтон совершает турне из одной провинции в другую, показывая свои каскадерские навыки и зарабатывая этим на жизнь. По окончании одного из своих выступлений он встречает свою бывшую девушку — Рамину, вскоре узнав, что у нее от него годовалый сын — Джейсон. Решив обеспечивать сына он бросает свою работу каскадера, однако Рамина против того, чтобы Люк был в жизни ее сына, поскольку она сама вовлечена в отношения с Кофи. Тем не менее, Люк остается в городе и устраивается на работу к механику Робину, но вскоре понимает, что заработанных денег не хватает для обеспечения семьи. Робин предлагает ему ограбить банк…--imdb | kinopoisk | Сэмпл--Тип релиза: BDRip 720p [The Place Beyond the Pines 2012 720p BluRay DD5.1 x264-HiDt]
Контейнер: MKV
Видео: MPEG-4 AVC / 8177 kbps / 1280x534 / 23,976 fps / 2,40:1 / High Profile 4.1
Аудио 1: Russian AC3 / 5.1 / 48 kHz / 640 kbps / 16 bits |Dub, Blu-ray|
Аудио 2: Russian AC3 / 5.1 / 48 kHz / 640 kbps / 16 bits |А. Киреев|
Аудио 3: English AC3 / 5.1 / 48 kHz / 640 kbps / 16 bits |original|
Аудио 4: English AC3 / 2.0 / 48 kHz / 192 kbps / 16 bits |Commentary with writer/director Derek Cianfrance|
Формат субтитров: softsub [SRT]

MediaInfo

Общее
Уникальный идентификатор                 : 219356941556079846054302250602389788809 (0xA5069C37B814D198AA1E915F1F6F5889)
Полное имя                               : G:\HD\Место под соснами.2012.BDRip.(720p).mkv
Формат                                   : Matroska
Версия формата                           : Version 2
Размер файла                             : 10,1 Гбайт
Продолжительность                        : 2 ч. 20 м.
Общий поток                              : 10,3 Мбит/сек
Дата кодирования                         : UTC 2013-11-17 13:38:15
Программа кодирования                    : mkvmerge v5.8.0 ('No Sleep / Pillow') built on Sep  2 2012 15:37:04
Библиотека кодирования                   : libebml v1.2.3 + libmatroska v1.3.0
Attachment                               : Yes
Видео
Идентификатор                            : 1
Формат                                   : AVC
Формат/Информация                        : Advanced Video Codec
Профиль формата                          : High@L4.1
Параметр CABAC формата                   : Да
Параметр ReFrames формата                : 12 кадров
Идентификатор кодека                     : V_MPEG4/ISO/AVC
Продолжительность                        : 2 ч. 20 м.
Битрейт                                  : 8177 Кбит/сек
Ширина                                   : 1280 пикселей
Высота                                   : 534 пикселя
Соотношение сторон                       : 2,40:1
Режим частоты кадров                     : Постоянный
Частота кадров                           : 23,976 кадра/сек
Цветовое пространство                    : YUV
Субдискретизация насыщенности            : 4:2:0
Битовая глубина                          : 8 бит
Тип развёртки                            : Прогрессивная
Бит/(Пиксели*Кадры)                      : 0.499
Размер потока                            : 7,82 Гбайт (77%)
Заголовок                                : The Place Beyond the Pines 2012 720p BluRay DD5.1 x264-HiDt
Библиотека кодирования                   : x264 core 135 r2345 f0c1c53
Настройки программы                      : cabac=1 / ref=12 / deblock=1:-3:-3 / analyse=0x3:0x113 / me=tesa / subme=11 / psy=1 / psy_rd=1.00:0.00 / mixed_ref=1 / me_range=32 / chroma_me=1 / trellis=2 / 8x8dct=1 / cqm=0 / deadzone=21,11 / fast_pskip=0 / chroma_qp_offset=-2 / threads=12 / lookahead_threads=2 / sliced_threads=0 / nr=0 / decimate=1 / interlaced=0 / bluray_compat=0 / constrained_intra=0 / bframes=7 / b_pyramid=2 / b_adapt=2 / b_bias=0 / direct=3 / weightb=1 / open_gop=0 / weightp=2 / keyint=240 / keyint_min=23 / scenecut=40 / intra_refresh=0 / rc_lookahead=60 / rc=2pass / mbtree=1 / bitrate=8177 / ratetol=1.0 / qcomp=0.70 / qpmin=0 / qpmax=69 / qpstep=4 / cplxblur=20.0 / qblur=0.5 / vbv_maxrate=50000 / vbv_bufsize=40000 / nal_hrd=none / ip_ratio=1.40 / aq=1:0.80
Язык                                     : English
Default                                  : Да
Forced                                   : Нет
Аудио #1
Идентификатор                            : 2
Формат                                   : AC-3
Формат/Информация                        : Audio Coding 3
Расширение режима                        : CM (complete main)
Параметр Endianness формата              : Big
Идентификатор кодека                     : A_AC3
Продолжительность                        : 2 ч. 20 м.
Вид битрейта                             : Постоянный
Битрейт                                  : 640 Кбит/сек
Каналы                                   : 6 каналов
Расположение каналов                     : Front: L C R, Side: L R, LFE
Частота                                  : 48,0 КГц
Битовая глубина                          : 16 бит
Метод сжатия                             : С потерями
Размер потока                            : 643 Мбайт (6%)
Заголовок                                : Dub, Blu-ray
Язык                                     : Russian
Default                                  : Да
Forced                                   : Нет
Аудио #2
Идентификатор                            : 3
Формат                                   : AC-3
Формат/Информация                        : Audio Coding 3
Расширение режима                        : CM (complete main)
Параметр Endianness формата              : Big
Идентификатор кодека                     : A_AC3
Продолжительность                        : 2 ч. 20 м.
Вид битрейта                             : Постоянный
Битрейт                                  : 640 Кбит/сек
Каналы                                   : 6 каналов
Расположение каналов                     : Front: L C R, Side: L R, LFE
Частота                                  : 48,0 КГц
Битовая глубина                          : 16 бит
Метод сжатия                             : С потерями
Размер потока                            : 643 Мбайт (6%)
Заголовок                                : А. Киреев
Язык                                     : Russian
Default                                  : Нет
Forced                                   : Нет
Аудио #3
Идентификатор                            : 4
Формат                                   : AC-3
Формат/Информация                        : Audio Coding 3
Расширение режима                        : CM (complete main)
Параметр Endianness формата              : Big
Идентификатор кодека                     : A_AC3
Продолжительность                        : 2 ч. 20 м.
Вид битрейта                             : Постоянный
Битрейт                                  : 640 Кбит/сек
Каналы                                   : 6 каналов
Расположение каналов                     : Front: L C R, Side: L R, LFE
Частота                                  : 48,0 КГц
Битовая глубина                          : 16 бит
Метод сжатия                             : С потерями
Размер потока                            : 643 Мбайт (6%)
Язык                                     : English
Default                                  : Нет
Forced                                   : Нет
Аудио #4
Идентификатор                            : 5
Формат                                   : AC-3
Формат/Информация                        : Audio Coding 3
Профиль формата                          : Dolby Digital
Расширение режима                        : CM (complete main)
Параметр Endianness формата              : Big
Идентификатор кодека                     : A_AC3
Продолжительность                        : 2 ч. 20 м.
Вид битрейта                             : Постоянный
Битрейт                                  : 192 Кбит/сек
Каналы                                   : 2 канала
Расположение каналов                     : Front: L R
Частота                                  : 48,0 КГц
Битовая глубина                          : 16 бит
Метод сжатия                             : С потерями
Размер потока                            : 193 Мбайт (2%)
Заголовок                                : Commentary
Язык                                     : English
Default                                  : Нет
Forced                                   : Нет
Текст #1
Идентификатор                            : 6
Формат                                   : UTF-8
Идентификатор кодека                     : S_TEXT/UTF8
Идентификатор кодека/Информация          : UTF-8 Plain Text
Язык                                     : Russian
Default                                  : Нет
Forced                                   : Нет
Текст #2
Идентификатор                            : 7
Формат                                   : UTF-8
Идентификатор кодека                     : S_TEXT/UTF8
Идентификатор кодека/Информация          : UTF-8 Plain Text
Язык                                     : English
Default                                  : Нет
Forced                                   : Нет
Меню
00:00:00.000                             : :Chapter 01
00:07:16.894                             : :Chapter 02
00:15:56.080                             : :Chapter 03
00:21:35.210                             : :Chapter 04
00:29:41.362                             : :Chapter 05
00:37:56.399                             : :Chapter 06
00:44:18.238                             : :Chapter 07
00:52:05.872                             : :Chapter 08
01:02:18.484                             : :Chapter 09
01:11:22.319                             : :Chapter 10
01:17:31.897                             : :Chapter 11
01:26:23.386                             : :Chapter 12
01:31:48.628                             : :Chapter 13
01:36:01.547                             : :Chapter 14
01:41:10.189                             : :Chapter 15
01:47:22.227                             : :Chapter 16
01:57:08.688                             : :Chapter 17
02:03:59.849                             : :Chapter 18
02:10:48.507                             : :Chapter 19
02:16:31.808                             : :Chapter 20

Скриншоты


Дополнительно

Дорожка №2 получена наложением чистого голоса на центр декодированного DTS-HD MA.
Дорожка №2 появилась благодаря: farivan, будулайроманов, qwertyuiopaspas, kidman644, dikii, mr_one_two
Работа со звуком — perevodman.
Скачать

Скачать торрент!

Как скачивать? · Что такое торрент? · Рейтинг и ограничения

Сайт не распространяет и не хранит электронные версии произведений, а лишь предоставляет доступ к создаваемому пользователями каталогу ссылок на торрент-файлы, которые содержат только списки хеш-сумм

[Профиль] [ЛС]
Показать сообщения:    
Ответить на тему

Текущее время: Сегодня 22:28

Часовой пояс: GMT + 4



Вы не можете начинать темы
Вы не можете отвечать на сообщения
Вы не можете редактировать свои сообщения
Вы не можете удалять свои сообщения
Вы не можете голосовать в опросах
Вы не можете прикреплять файлы к сообщениям
Вы не можете скачивать файлы