Семь психопатов / Seven Psychopaths (Мартин МакДона / Martin McDonagh) [2012, Великобритания, комедия, криминал, BDRip 720p] Dub + AVO (Сербин) + AVO (Гоблин) + VO (Завгородний) + Ukr + Sub Rus, Eng + Original Eng

Ответить на тему
 
Автор Сообщение

user ®

Стаж: 7 лет 7 месяцев

Сообщений: 20008

Пост Пост: #1 от 18-Ноя-2013 02:00

[Цитировать]

Семь психопатов / Seven Psychopaths-«They Won't Take Any Shih Tzu.»- Страна: Великобритания
Студия: Blueprint Pictures / British Film Institute (BFI)
Жанр: комедия, криминал
Год выпуска: 2012
Продолжительность: 01:50:23-Перевод 1: Профессиональный (дублированный)
Перевод 2: Авторский (одноголосый закадровый) Сербин
Перевод 3: Авторский (одноголосый закадровый) Гоблин
Перевод 4: Одноголосый закадровый Завгородний
Перевод 5: Профессиональный(многоголосый закадровый) AAA-sound (Украинский)
Cубтитры: русские, английские
Оригинальная аудиодорожка: английский-Режиссер: Мартин МакДона / Martin McDonagh
В ролях: Колин Фаррелл (Colin Farrell), Сэм Рокуэлл (Sam Rockwell), Кристофер Уокен (Christopher Walken), Вуди Харрельсон (Woody Harrelson), Том Уэйтс (Tom Waits), Эбби Корниш (Abbie Cornish), Ольга Куриленко, Желько Иванек (Zeljko Ivanek)-Описание: Непутевый писатель потерял вдохновение и никак не может справиться с новым сценарием. Волей случая он оказывается втянутым в похищение собаки, затеянное его эксцентричными дружками. Выясняется, что украденное животное — любимый пёс главного местного гангстера, которому ничего не стоит в два счета вычислить и уничтожить оболтусов.- -Тип релиза: BDRip 720p
Контейнер: MKV-Видео: XVID; 1280x534; 2,35:1; 23,976 fps; 8524 kbps
Аудио 1: Russian (DTS, 6 ch, 1510 kbps, 48,0 КГц) - Профессиональный (дублированный)
Аудио 2: Russian (DTS, 6 ch, 1510 kbps, 48,0 КГц) - Авторский (одноголосый закадровый) Сербин
Аудио 3: Russian (AC3, 6 ch, 640 kbps, 48,0 КГц) - Авторский (одноголосый закадровый) Гоблин
Аудио 4: Russian (DTS, 6 ch, 1510 kbps, 48,0 КГц) - Одноголосый закадровый Завгородний
Аудио 5: Ukrainian (DTS, 6 ch, 1510 kbps, 48,0 КГц)
Аудио 6: English (DTS, 6 ch, 1510 kbps, 48,0 КГц)
Формат субтитров: softsub (SRT)

MediaInfo

Общее
Уникальный идентификатор : 175592367909082467594330340069202592794 (0x8419DC24C74F6F5287EFD99D8DCE041A)
Полное имя : F:Sem.psihopatov.2012.D.BDRip.720p.mkv
Формат : Matroska
Размер файла : 13,2 Гбайт
Продолжительность : 1 ч. 50 м.
Общий поток : 17,1 Мбит/сек
Дата кодирования : UTC 2013-03-31 10:28:03
Программа кодирования : mkvmerge v5.8.0 ('No Sleep / Pillow') built on Sep 2 2012 15:37:04
Библиотека кодирования : libebml v1.2.3 + libmatroska v1.3.0
Видео
Идентификатор : 1
Формат : AVC
Формат/Информация : Advanced Video Codec
Профиль формата : High@L4.1
Параметр CABAC формата : Да
Параметр ReFrames формата : 12 кадров
Идентификатор кодека : V_MPEG4/ISO/AVC
Продолжительность : 1 ч. 50 м.
Битрейт : 8524 Кбит/сек
Ширина : 1280 пикс.
Высота : 534 пикс.
Соотношение сторон : 2,35:1
Частота кадров : 23,976 кадр/сек
Цветовое пространство : YUV
Подвыборка цветности : 4:2:0
Битовая глубина : 8 бит
Тип развёртки : Прогрессивная
Бит/(Пиксели*Кадры) : 0.520
Размер потока : 6,58 Гбайт (50%)
Заголовок : Seven Psychopaths 2012 720p BluRay x264-tranc
Библиотека кодирования : x264 core 129 r2230 1cffe9f
Настройки программы : cabac=1 / ref=12 / deblock=1:-3:-3 / analyse=0x3:0x133 / me=umh / subme=10 / psy=1 / psy_rd=0.95:0.00 / mixed_ref=1 / me_range=24 / chroma_me=1 / trellis=2 / 8x8dct=1 / cqm=0 / deadzone=21,11 / fast_pskip=0 / chroma_qp_offset=-2 / threads=6 / lookahead_threads=1 / sliced_threads=0 / nr=0 / decimate=0 / interlaced=0 / bluray_compat=0 / constrained_intra=0 / bframes=9 / b_pyramid=2 / b_adapt=2 / b_bias=0 / direct=3 / weightb=1 / open_gop=0 / weightp=2 / keyint=250 / keyint_min=23 / scenecut=40 / intra_refresh=0 / rc=crf / mbtree=0 / crf=16.7 / qcomp=0.70 / qpmin=0 / qpmax=69 / qpstep=4 / ip_ratio=1.30 / pb_ratio=1.25 / aq=1:0.87
Язык : English
Аудио #1
Идентификатор : 2
Формат : DTS
Формат/Информация : Digital Theater Systems
Идентификатор кодека : A_DTS
Продолжительность : 1 ч. 50 м.
Вид битрейта : Постоянный
Битрейт : 1510 Кбит/сек
Каналы : 6 каналов
Расположение каналов : Front: L C R, Side: L R, LFE
Частота : 48,0 КГц
Битовая глубина : 24 бит
Метод сжатия : С потерями
Размер потока : 1,16 Гбайт (9%)
Заголовок : DUB
Язык : Russian
Аудио #2
Идентификатор : 3
Формат : DTS
Формат/Информация : Digital Theater Systems
Идентификатор кодека : A_DTS
Продолжительность : 1 ч. 50 м.
Вид битрейта : Постоянный
Битрейт : 1510 Кбит/сек
Каналы : 6 каналов
Расположение каналов : Front: L C R, Side: L R, LFE
Частота : 48,0 КГц
Битовая глубина : 24 бит
Метод сжатия : С потерями
Размер потока : 1,16 Гбайт (9%)
Заголовок : AVO Serbin
Язык : Russian
Аудио #3
Идентификатор : 4
Формат : AC-3
Формат/Информация : Audio Coding 3
Расширение режима : CM (complete main)
Идентификатор кодека : A_AC3
Продолжительность : 1 ч. 50 м.
Вид битрейта : Постоянный
Битрейт : 640 Кбит/сек
Каналы : 6 каналов
Расположение каналов : Front: L C R, Side: L R, LFE
Частота : 48,0 КГц
Битовая глубина : 16 бит
Метод сжатия : С потерями
Размер потока : 506 Мбайт (4%)
Заголовок : AVO Goblin
Язык : Russian
Аудио #4
Идентификатор : 5
Формат : DTS
Формат/Информация : Digital Theater Systems
Идентификатор кодека : A_DTS
Продолжительность : 1 ч. 50 м.
Вид битрейта : Постоянный
Битрейт : 1510 Кбит/сек
Каналы : 6 каналов
Расположение каналов : Front: L C R, Side: L R, LFE
Частота : 48,0 КГц
Битовая глубина : 24 бит
Метод сжатия : С потерями
Размер потока : 1,16 Гбайт (9%)
Заголовок : VO Zavgorodnii
Язык : Russian
Аудио #5
Идентификатор : 6
Формат : DTS
Формат/Информация : Digital Theater Systems
Идентификатор кодека : A_DTS
Продолжительность : 1 ч. 50 м.
Вид битрейта : Постоянный
Битрейт : 1510 Кбит/сек
Каналы : 6 каналов
Расположение каналов : Front: L C R, Side: L R, LFE
Частота : 48,0 КГц
Битовая глубина : 24 бит
Метод сжатия : С потерями
Размер потока : 1,16 Гбайт (9%)
Язык : Ukrainian
Аудио #6
Идентификатор : 7
Формат : DTS
Формат/Информация : Digital Theater Systems
Идентификатор кодека : A_DTS
Продолжительность : 1 ч. 50 м.
Вид битрейта : Постоянный
Битрейт : 1510 Кбит/сек
Каналы : 6 каналов
Расположение каналов : Front: L C R, Side: L R, LFE
Частота : 48,0 КГц
Битовая глубина : 24 бит
Метод сжатия : С потерями
Размер потока : 1,16 Гбайт (9%)
Язык : English
Текст #1
Идентификатор : 8
Формат : UTF-8
Идентификатор кодека : S_TEXT/UTF8
Идентификатор кодека/Информация : UTF-8 Plain Text
Язык : Russian
Текст #2
Идентификатор : 9
Формат : UTF-8
Идентификатор кодека : S_TEXT/UTF8
Идентификатор кодека/Информация : UTF-8 Plain Text
Заголовок : Forced
Язык : English
Текст #3
Идентификатор : 10
Формат : UTF-8
Идентификатор кодека : S_TEXT/UTF8
Идентификатор кодека/Информация : UTF-8 Plain Text
Язык : English

Скриншоты

Скачать

Скачать торрент!

Как скачивать? · Что такое торрент? · Рейтинг и ограничения

Сайт не распространяет и не хранит электронные версии произведений, а лишь предоставляет доступ к создаваемому пользователями каталогу ссылок на торрент-файлы, которые содержат только списки хеш-сумм

[Профиль] [ЛС]
Показать сообщения:    
Ответить на тему

Текущее время: Сегодня 00:03

Часовой пояс: GMT + 4



Вы не можете начинать темы
Вы не можете отвечать на сообщения
Вы не можете редактировать свои сообщения
Вы не можете удалять свои сообщения
Вы не можете голосовать в опросах
Вы не можете прикреплять файлы к сообщениям
Вы не можете скачивать файлы