Пари на любовь / Racha (Сампат Нанди / Sampat Nandhi) [2012, Индия, Боевик, НDRip] МVO (Red Media) + Sub Rus

Ответить на тему
 
Автор Сообщение

user ®

Стаж: 12 лет

Сообщений: 15092

Пост Пост: #1 от 17-Ноя-2013 20:25

[Цитировать]

Пари на любовь / Racha
-Страна: Индия
Жанр: Боевик
Год выпуска: 2012
Продолжительность: 02:23:48-Язык: Телугу
Перевод: Профессиональный (многоголосый закадровый) - Red Media
Субтитры: Русские (только песни) [перевод: марик, witaa]--Режиссер: Сампат Нанди / Sampat Nandhi-В ролях: Рам Чаран Теджа, Таманна, Аджмал Амир, Мукеш Риши, М.С.Нараяна, Али, Брахманандам--Описание: Радж (Рам Чаран Теджа) - беспечный парень, он зарабатывает тем, что делает ставки на деньги, и зачастую рискует своей жизнью. Он живет вместе с приемными родителями, и когда в семью приходит беда, перед Раджем встает проблема: где взять 200 тысяч на операцию своему отцу. Ответ приходит неожиданно в лице Джеймса (Аджмал Амир) - давнего соперника героя в спорах. Джеймс предлагает новое пари: сможет ли Радж влюбить в себя всего за один месяц одну своенравную и недосягаемую красавицу? Проблема заключается в малом - к Чайтре (Тамана) невозможно приблизиться, ее богатый папаша-фракционер окружил девушку плотным кольцом телохранителей. Радж не привык отступать, он принимает вызов. Но в процессе обольщения ситуация выходит из-под контроля и герою приходится столкнуться с тайной из прошлого, его с Чайтрой прошлого...-- | Сэмпл--Качество видео: HDRip (исх. BDRip 1080p)
Формат видео: AVI-Видео: XviD, 720x304, 24 fps, 1316 Kbps
Аудио: MP3, 48 KHz, 2ch, 128 Kbps
Формат субтитров: hardsub (вшитые, неотключаемые)-Сэмпл / Sample--Риппер и сведение звука: soso4eg-- --

Скриншоты с названием:


-

Скриншоты:


-

MediaInfo:

Общее
Полное имя : D:\[Релизы]\Pari.2012.HDRip.XviD-soso4eg.avi
Формат : AVI
Формат/Информация : Audio Video Interleave
Размер файла : 1,46 Гбайт
Продолжительность : 2 ч. 23 м.
Общий поток : 1453 Кбит/сек
Название фильма : Pari.2012.HDRip.XviD-soso4eg
Режиссёр : soso4eg
Программа кодирования : VirtualDubMod 1.5.10.3 | www.virtualdub-fr.org || (build 2550/release)
Правообладатель : ***
Видео
Идентификатор : 0
Формат : MPEG-4 Visual
Профиль формата : Advanced Simple@L5
Параметр BVOP формата : 1
Параметр QPel формата : Нет
Параметр GMC формата : Без точки перехода
Параметр матрицы формата : Default (H.263)
Идентификатор кодека : XVID
Идентификатор кодека/Подсказка : XviD
Продолжительность : 2 ч. 23 м.
Битрейт : 1316 Кбит/сек
Ширина : 720 пикселей
Высота : 304 пикселя
Соотношение сторон : 2,35:1
Частота кадров : 24,000 кадра/сек
Цветовое пространство : YUV
Субдискретизация насыщенности : 4:2:0
Битовая глубина : 8 бит
Тип развёртки : Прогрессивная
Метод сжатия : С потерями
Бит/(Пиксели*Кадры) : 0.250
Размер потока : 1,32 Гбайт (91%)
Библиотека кодирования : XviD 1.2.1 (UTC 2008-12-04)
Аудио
Идентификатор : 1
Формат : MPEG Audio
Версия формата : Version 1
Профиль формата : Layer 3
Режим : Joint stereo
Идентификатор кодека : 55
Идентификатор кодека/Подсказка : MP3
Продолжительность : 2 ч. 23 м.
Вид битрейта : Постоянный
Битрейт : 128 Кбит/сек
Каналы : 2 канала
Частота : 48,0 КГц
Метод сжатия : С потерями
Размер потока : 132 Мбайт (9%)
Выравнивание : Соединение по промежуткам
Продолжительность промежутка : 42 мс. (1,00 видеокадр)
Время предзагрузки промежутка : 504 мс.
-
Скачать

Скачать торрент! Пари на любовь / Racha (Сампат Нанди / Sampat Nandhi) [2012, Индия, Боевик, НDRip] МVO (Red Media) + Sub Rus

Как скачивать? · Что такое торрент? · Рейтинг и ограничения

Сайт не распространяет и не хранит электронные версии произведений, а лишь предоставляет доступ к создаваемому пользователями каталогу ссылок на торрент-файлы, которые содержат только списки хеш-сумм

[Профиль] [ЛС]
Показать сообщения:    
Ответить на тему

Текущее время: Сегодня 11:48

Часовой пояс: GMT + 4



Вы не можете начинать темы
Вы не можете отвечать на сообщения
Вы не можете редактировать свои сообщения
Вы не можете удалять свои сообщения
Вы не можете голосовать в опросах
Вы не можете прикреплять файлы к сообщениям
Вы не можете скачивать файлы