Посланник судьбы / Велаюдхам / Velayudham (М. Раджа / M. Raja) [2011, Индия, Боевик, драма, HDRip] MVO (Red Media)

Ответить на тему
 
Автор Сообщение

user ®

Стаж: 12 лет

Сообщений: 15092

Пост Пост: #1 от 17-Ноя-2013 20:25

[Цитировать]

Посланник судьбы / Велаюдхам / Velayudham
Страна: Индия
Жанр: Боевик, драма
Год выпуска: 2011
Продолжительность: 02:46:38
Перевод: Профессиональный (многоголосый закадровый) Red Media
Cубтитры: нет
Режиссер: М. Раджа / M. Raja
В ролях: Виджай, Женелия Де Суза, Хансика Мотвани, Саранья Мохан, Сантанам, Винит Кумар, Сури, Панди, Абхиманью Сингх
Описание: Действие фильма начинается в Ченнаи. Тележурналист Бхарати пытается выяснить о коррупции в высших эшелонах власти. В это же время министр внутренних дел вступил в сговор с террористами, - и вместе они планируют несколько чудовищных взрывов в городе, и тем самым создать напряженную обстановку во всем штате. Однажды, спасаясь от бандитов после попытки достать информацию о людях, занимающихся похищением и продажей молодых девушек, Бхарати была жестоко избита, а двое ее друзей убиты. Однако в аварии гибнут и те головорезы. Бхарати придумывает несуществующего героя Велаюдхама, от имени которого пишет записку, что он, Велаюдхам, будет бороться со злом и очистит город от преступников и несправедливости. Кто же мог знать, что в одной деревне живет веселый молочник, обожающий свою младшую сестренку Кавери и мучающий свою кузину Вайдеги, хотя ты от него без ума! И собирается он ехать в Ченнай снять деньги с депозита, ведь скоро свадьба сестры. И все бы хорошо, но парня зовут… Велу, а точнее, Велаюдхам!
Доп. информация: Исходник BDRip (1080p) (СПАСИБО! jasinpapa)
Сэмпл: http://multi-up.com/924135
Качество видео: HDRip
Формат видео: AVI
Видео: XviD build 50, 688x288 (2.39:1), 23.976 fps 1118 kbps avg
Аудио: MPEG Layer 3, 48 kHz, 2/0 (L,R) ch, 128.00 kbps avg

MediaInfo

General
Complete name : D:\Poslannik.sydbi.2011.HDRip-Dego.avi
Format : AVI
Format/Info : Audio Video Interleave
File size : 1.46 GiB
Duration : 2h 46mn
Overall bit rate : 1 256 Kbps
Writing application : VirtualDubMod 1.5.10.2 (build 2540/release)
Writing library : VirtualDubMod build 2540/release
Video
ID : 0
Format : MPEG-4 Visual
Format profile : AdvancedSimple@L5
Format settings, BVOP : Yes
Format settings, QPel : No
Format settings, GMC : No warppoints
Format settings, Matrix : Default (MPEG)
Codec ID : XVID
Codec ID/Hint : XviD
Duration : 2h 46mn
Bit rate : 1 119 Kbps
Width : 688 pixels
Height : 288 pixels
Display aspect ratio : 2.35
Frame rate : 23.976 fps
Resolution : 24 bits
Colorimetry : 4:2:0
Scan type : Progressive
Bits/(Pixel*Frame) : 0.235
Stream size : 1.30 GiB (89%)
Writing library : XviD 1.2.1 (UTC 2008-12-04)
Audio
ID : 1
Format : MPEG Audio
Format version : Version 1
Format profile : Layer 3
Codec ID : 55
Codec ID/Hint : MP3
Duration : 2h 46mn
Bit rate mode : Constant
Bit rate : 128 Kbps
Channel(s) : 2 channels
Sampling rate : 48.0 KHz
Resolution : 16 bits
Stream size : 153 MiB (10%)
Alignment : Aligned on interleaves
Interleave, duration : 42 ms (1.00 video frame)
Interleave, preload duration : 504 ms

Скриншот c названием фильма

Скриншоты

Скачать

Скачать торрент! Посланник судьбы / Велаюдхам / Velayudham (М. Раджа / M. Raja) [2011, Индия, Боевик, драма, HDRip] MVO (Red Media)

Как скачивать? · Что такое торрент? · Рейтинг и ограничения

Сайт не распространяет и не хранит электронные версии произведений, а лишь предоставляет доступ к создаваемому пользователями каталогу ссылок на торрент-файлы, которые содержат только списки хеш-сумм

[Профиль] [ЛС]
Показать сообщения:    
Ответить на тему

Текущее время: Сегодня 19:31

Часовой пояс: GMT + 4



Вы не можете начинать темы
Вы не можете отвечать на сообщения
Вы не можете редактировать свои сообщения
Вы не можете удалять свои сообщения
Вы не можете голосовать в опросах
Вы не можете прикреплять файлы к сообщениям
Вы не можете скачивать файлы