88 минут / 88 Minutes (Джон Эвнет / Jon Avnet) [2007, США, Германия, Канада, триллер, драма, детектив, BDRemux 1080p] MVO + DVO + Original Eng + Eng Sub

Ответить на тему
 
Автор Сообщение

user ®

Стаж: 7 лет 7 месяцев

Сообщений: 20008

Пост Пост: #1 от 17-Ноя-2013 20:25

[Цитировать]

88 минут / 88 Minutes- -Страна: США, Германия, Канада
Студия: Millennium Films
Жанр: триллер, драма, детектив
Год выпуска: 2007
Продолжительность: 01:47:29-Перевод 1: Профессиональный (многоголосый закадровый)
Перевод 2: Любительский (двухголосый закадровый)
Cубтитры: английский, русские на не переведенную сцену
Оригинальная аудиодорожка: английский-Режиссер: Джон Эвнет / Jon Avnet
Сценарий: Гэри Скотт Томпсон
Продюсер: Джон Эвнет, Сэмюэл Хадида, Манфред Д. Хейд, ...
Оператор: Дени Ленуар
Композитор: Эд Ширмёр
Художник: Трэйси Галлахер, Джереми Стэнбридж, Мэри Е. МакЛеод, ...
Монтаж: Питер Е. Бергер
В ролях: Аль Пачино, Алисия Уитт, Лили Собески, Эми Бреннеман, Уильям Форсайт, Дебора Кара Ангер, Бен МакКензи, Нил МакДонаф, Леа Кейрнс, Стивен Мойер.-Описание: Главный герой фильма, Джек Грэм — профессор колледжа, сотрудничает с ФБР, составляя психологические портреты убийц. Однажды Грэм помогает посадить за решетку серийного убийцу. За несколько часов до казни преступника Джек получает телефонный звонок, где ему сообщают, что ему осталось жить всего 88 минут. Теперь ему предстоит выяснить, что же все это значит и насколько эта угроза реальна.- -Это французкое издание, и версия фильма не соответствует русской в ней есть вырезанные моменты, да и по времени она короче, однако есть и новая сцена в суде.-Тип релиза: BDRemux 1080p
Контейнер: MKV
Видео: MPEG-4 AVC Video 30177 kbps 1080p / 23.976 fps / 16:9 / High Profile 4.1
Аудио 1: MVO R5 AC3 448 kBit/s 48 kHz 5.1 DD
Аудио 2: DVO interfilm AC3 192 kBit/s 48 kHz 2.0 DD
Аудио 3: English DTS-HD Master Audio / 5.1 / 48 kHz / 3 734 kbps / 24 bits (DTS Core: 5.1 / 48 kHz / 1509 kbps / 24-bit )
Аудио 4: Commentary AC3 192 kBit/s 48 kHz 2.0 DD-

MediaInfo

General
Unique ID : 225447776657539546425315259087766544015 (0xA99BA992C93DBC74BA9C7CF76BCDDE8F)
Complete name : I:\__R__\88 Minutes.mkv
Format : Matroska
Format version : Version 2
File size : 26.1 GiB
Duration : 1h 47mn
Overall bit rate mode : Variable
Overall bit rate : 34.7 Mbps
Movie name : 88 минут / 88 Minutes
Encoded date : UTC 2013-11-17 11:41:23
Writing application : mkvmerge v5.6.0 ('Kenya Kane') built on May 27 2012 16:44:04
Writing library : libebml v1.2.3 + libmatroska v1.3.0
Video
ID : 1
Format : AVC
Format/Info : Advanced Video Codec
Format profile : High@L4.1
Format settings, CABAC : Yes
Format settings, ReFrames : 4 frames
Format settings, GOP : M=3, N=12
Codec ID : V_MPEG4/ISO/AVC
Duration : 1h 47mn
Bit rate mode : Variable
Maximum bit rate : 32.0 Mbps
Width : 1 920 pixels
Height : 1 080 pixels
Display aspect ratio : 16:9
Frame rate mode : Constant
Frame rate : 23.976 fps
Color space : YUV
Chroma subsampling : 4:2:0
Bit depth : 8 bits
Scan type : Progressive
Default : Yes
Forced : No
Color primaries : BT.709
Transfer characteristics : BT.709
Matrix coefficients : BT.709
Audio #1
ID : 2
Format : AC-3
Format/Info : Audio Coding 3
Mode extension : CM (complete main)
Format settings, Endianness : Big
Codec ID : A_AC3
Duration : 1h 47mn
Bit rate mode : Constant
Bit rate : 448 Kbps
Channel(s) : 6 channels
Channel positions : Front: L C R, Side: L R, LFE
Sampling rate : 48.0 KHz
Bit depth : 16 bits
Compression mode : Lossy
Stream size : 344 MiB (1%)
Title : MVO R5 AC3 448 kBit/s 48 kHz 5.1 DD
Language : Russian
Default : Yes
Forced : No
Audio #2
ID : 3
Format : AC-3
Format/Info : Audio Coding 3
Mode extension : CM (complete main)
Format settings, Endianness : Big
Codec ID : A_AC3
Duration : 1h 47mn
Bit rate mode : Constant
Bit rate : 192 Kbps
Channel(s) : 2 channels
Channel positions : Front: L R
Sampling rate : 48.0 KHz
Bit depth : 16 bits
Compression mode : Lossy
Stream size : 148 MiB (1%)
Title : DVO interfilm AC3 192 kBit/s 48 kHz 2.0 DD
Language : Russian
Default : No
Forced : No
Audio #3
ID : 4
Format : DTS
Format/Info : Digital Theater Systems
Format profile : MA / Core
Mode : 16
Format settings, Endianness : Big
Codec ID : A_DTS
Duration : 1h 47mn
Bit rate mode : Variable
Bit rate : Unknown / 1 509 Kbps
Channel(s) : 6 channels
Channel positions : Front: L C R, Side: L R, LFE
Sampling rate : 48.0 KHz
Bit depth : 24 bits
Compression mode : Lossless / Lossy
Title : DTS HD-MA
Language : English
Default : No
Forced : No
Audio #4
ID : 5
Format : AC-3
Format/Info : Audio Coding 3
Format profile : Dolby Digital
Mode extension : CM (complete main)
Format settings, Endianness : Big
Codec ID : A_AC3
Duration : 1h 47mn
Bit rate mode : Constant
Bit rate : 192 Kbps
Channel(s) : 2 channels
Channel positions : Front: L R
Sampling rate : 48.0 KHz
Bit depth : 16 bits
Compression mode : Lossy
Stream size : 148 MiB (1%)
Title : Commentary
Language : English
Default : No
Forced : No
Text #1
ID : 6
Format : UTF-8
Codec ID : S_TEXT/UTF8
Codec ID/Info : UTF-8 Plain Text
Title : форсированные на не переведенные моменты
Language : Russian
Default : Yes
Forced : No
Text #2
ID : 7
Format : UTF-8
Codec ID : S_TEXT/UTF8
Codec ID/Info : UTF-8 Plain Text
Language : English
Default : No
Forced : No
Menu
00:00:00.000 : en:Chapter 01
00:06:04.029 : en:Chapter 02
00:11:27.435 : en:Chapter 03
00:15:46.403 : en:Chapter 04
00:19:28.917 : en:Chapter 05
00:24:08.447 : en:Chapter 06
00:30:23.071 : en:Chapter 07
00:36:40.614 : en:Chapter 08
00:44:31.460 : en:Chapter 09
00:57:58.349 : en:Chapter 10
01:05:37.558 : en:Chapter 11
01:14:51.403 : en:Chapter 12
01:19:54.539 : en:Chapter 13
01:26:22.010 : en:Chapter 14
01:31:50.755 : en:Chapter 15
01:38:48.255 : en:Chapter 16

Скриншоты

Скачать

Скачать торрент!

Как скачивать? · Что такое торрент? · Рейтинг и ограничения

Сайт не распространяет и не хранит электронные версии произведений, а лишь предоставляет доступ к создаваемому пользователями каталогу ссылок на торрент-файлы, которые содержат только списки хеш-сумм

[Профиль] [ЛС]
Показать сообщения:    
Ответить на тему

Текущее время: Сегодня 12:54

Часовой пояс: GMT + 4



Вы не можете начинать темы
Вы не можете отвечать на сообщения
Вы не можете редактировать свои сообщения
Вы не можете удалять свои сообщения
Вы не можете голосовать в опросах
Вы не можете прикреплять файлы к сообщениям
Вы не можете скачивать файлы