Чтo-тo не тaк с Keвинoм / Wе Nееd tо Tаlk Аbоut Кеvin (Линн Рэмзи / Lynne Ramsay) [2011, Великобритания, США, триллер, драма, BDRip 720p] MVO (Лицензия) + DVO (П. Гланц и И. Королёва) + AVO (Ю. Сербин) + original eng + subs (rus, eng)

Ответить на тему
 
Автор Сообщение

user ®

Стаж: 7 лет 7 месяцев

Сообщений: 20008

Пост Пост: #1 от 17-Ноя-2013 20:25

[Цитировать]

Что-то не так с Кевином / We Need to Talk About Kevin
Страна: Великобритания, США
Жанр: триллер, драма
Год выпуска: 2011
Продолжительность: 01:51:58
Перевод #1: Профессиональный (многоголосый закадровый) [Лицензия]
Перевод #2: Профессиональный (двухголосый закадровый) [Пётр Гланц и Инна Королёва]
Перевод #3: Авторский (одноголосый закадровый) [Юрий Сербин]
Оригинальная аудиодорожка: английский
Режиссер: Линн Рэмзи / Lynne Ramsay
В ролях: Тильда Суинтон, Эзра Миллер, Джон Си Райли, Джаспер Ньюэлл, Рок Дер, Эшли Герасимович, Шиван Фэллон, Алекс Манетт, Кеннет Франклин, Лесли Лайлс
Описание: Отложив в сторону все личные и профессиональные амбиции, Ева посвящает жизнь рождению и воспитанию сына. Однако их отношения с самого начала оказываются крайне сложными. В пятнадцать лет Кевин совершает непоправимое, и Ева мучается сознанием ответственности и собственной вины. Достаточно ли она любила своего сына? Какова доля ее вины в происшедшем?..
Сэмпл: http://multi-up.com/913040
Тип релиза: BDRip 720p
Контейнер: MKV
Видео: 1280x536, 24.000fps, x264, 4940 kbps
Аудио: AC-3 5.1, 48 kHz, 16 bits, 448 kbps (RUS, MVO)
Аудио: AC-3 5.1, 48 kHz, 16 bits, 640 kbps (RUS, DVO)
Аудио: AC-3 5.1, 48 kHz, 16 bits, 640 kbps (RUS, AVO)
Аудио: DTS 5.1, 48 kHz, 16 bits, 1509 kbps (ENG)
Cубтитры: русские, английские

MediaInfo

Общее
Уникальный идентификатор : 200619125843108206933295058205583660268 (0x96EDD69379D330F894E441B94414D4EC)
Полное имя : F:\We.Need.to.Talk.About.Kevin.2011.P.P2.L1.Rus.Eng.BDRip.720p.mkv
Формат : Matroska
Версия формата : Version 2
Размер файла : 6,40 Гбайт
Продолжительность : 1 ч. 51 м.
Общий поток : 8178 Кбит/сек
Дата кодирования : UTC 2013-10-14 07:42:39
Программа кодирования : mkvmerge v6.4.1 ('Omega Point') built on Sep 16 2013 22:05:10
Библиотека кодирования : libebml v1.3.0 + libmatroska v1.4.1
Видео
Идентификатор : 1
Формат : AVC
Формат/Информация : Advanced Video Codec
Профиль формата : High@L4.1
Параметр CABAC формата : Да
Параметр ReFrames формата : 12 кадров
Идентификатор кодека : V_MPEG4/ISO/AVC
Продолжительность : 1 ч. 51 м.
Битрейт : 4940 Кбит/сек
Ширина : 1280 пикселей
Высота : 536 пикселей
Соотношение сторон : 2,40:1
Режим частоты кадров : Постоянный
Частота кадров : 24,000 кадра/сек
Цветовое пространство : YUV
Субдискретизация насыщенности : 4:2:0
Битовая глубина : 8 бит
Тип развёртки : Прогрессивная
Бит/(Пиксели*Кадры) : 0.300
Размер потока : 3,74 Гбайт (58%)
Библиотека кодирования : x264 core 120 r2164 da19765
Настройки программы : cabac=1 / ref=12 / deblock=1:-3:-3 / analyse=0x3:0x133 / me=tesa / subme=11 / psy=1 / psy_rd=1.05:0.05 / mixed_ref=1 / me_range=24 / chroma_me=1 / trellis=2 / 8x8dct=1 / cqm=0 / deadzone=21,11 / fast_pskip=0 / chroma_qp_offset=-3 / threads=12 / sliced_threads=0 / nr=0 / decimate=0 / interlaced=0 / bluray_compat=0 / constrained_intra=0 / bframes=7 / b_pyramid=2 / b_adapt=2 / b_bias=0 / direct=3 / weightb=1 / open_gop=0 / weightp=2 / keyint=250 / keyint_min=24 / scenecut=40 / intra_refresh=0 / rc=2pass / mbtree=0 / bitrate=4940 / ratetol=1.0 / qcomp=0.60 / qpmin=0 / qpmax=69 / qpstep=4 / cplxblur=20.0 / qblur=0.5 / ip_ratio=1.40 / pb_ratio=1.30 / aq=1:0.90
Язык : English
Default : Да
Forced : Нет
Аудио #1
Идентификатор : 2
Формат : AC-3
Формат/Информация : Audio Coding 3
Расширение режима : CM (complete main)
Параметр Endianness формата : Big
Идентификатор кодека : A_AC3
Продолжительность : 1 ч. 51 м.
Вид битрейта : Постоянный
Битрейт : 448 Кбит/сек
Каналы : 6 каналов
Расположение каналов : Front: L C R, Side: L R, LFE
Частота : 48,0 КГц
Битовая глубина : 16 бит
Метод сжатия : С потерями
Размер потока : 359 Мбайт (5%)
Язык : Russian
Default : Да
Forced : Нет
Аудио #2
Идентификатор : 3
Формат : AC-3
Формат/Информация : Audio Coding 3
Расширение режима : CM (complete main)
Параметр Endianness формата : Big
Идентификатор кодека : A_AC3
Продолжительность : 1 ч. 51 м.
Вид битрейта : Постоянный
Битрейт : 640 Кбит/сек
Каналы : 6 каналов
Расположение каналов : Front: L C R, Side: L R, LFE
Частота : 48,0 КГц
Битовая глубина : 16 бит
Метод сжатия : С потерями
Размер потока : 513 Мбайт (8%)
Язык : Russian
Default : Нет
Forced : Нет
Аудио #3
Идентификатор : 4
Формат : AC-3
Формат/Информация : Audio Coding 3
Расширение режима : CM (complete main)
Параметр Endianness формата : Big
Идентификатор кодека : A_AC3
Продолжительность : 1 ч. 51 м.
Вид битрейта : Постоянный
Битрейт : 640 Кбит/сек
Каналы : 6 каналов
Расположение каналов : Front: L C R, Side: L R, LFE
Частота : 48,0 КГц
Битовая глубина : 16 бит
Метод сжатия : С потерями
Размер потока : 513 Мбайт (8%)
Язык : Russian
Default : Нет
Forced : Нет
Аудио #4
Идентификатор : 5
Формат : DTS
Формат/Информация : Digital Theater Systems
Режим : 16
Параметр Endianness формата : Big
Идентификатор кодека : A_DTS
Продолжительность : 1 ч. 51 м.
Вид битрейта : Постоянный
Битрейт : 1509 Кбит/сек
Каналы : 6 каналов
Расположение каналов : Front: L C R, Side: L R, LFE
Частота : 48,0 КГц
Битовая глубина : 16 бит
Метод сжатия : С потерями
Размер потока : 1,18 Гбайт (18%)
Язык : English
Default : Нет
Forced : Нет
Текст #1
Идентификатор : 6
Формат : UTF-8
Идентификатор кодека : S_TEXT/UTF8
Идентификатор кодека/Информация : UTF-8 Plain Text
Язык : Russian
Default : Нет
Forced : Нет
Текст #2
Идентификатор : 7
Формат : UTF-8
Идентификатор кодека : S_TEXT/UTF8
Идентификатор кодека/Информация : UTF-8 Plain Text
Язык : English
Default : Нет
Forced : Нет
Меню
00:00:00.000 : en:00:00:00.000
00:06:55.000 : en:00:06:55.000
00:12:29.625 : en:00:12:29.625
00:20:26.000 : en:00:20:26.000
00:29:07.625 : en:00:29:07.625
00:38:43.000 : en:00:38:43.000
00:47:12.625 : en:00:47:12.625
00:58:42.000 : en:00:58:42.000
01:09:20.625 : en:01:09:20.625
01:21:01.625 : en:01:21:01.625
01:33:01.625 : en:01:33:01.625
01:47:07.625 : en:01:47:07.625

Скриншот с названием

Скриншоты

Скачать

Скачать торрент!

Как скачивать? · Что такое торрент? · Рейтинг и ограничения

Сайт не распространяет и не хранит электронные версии произведений, а лишь предоставляет доступ к создаваемому пользователями каталогу ссылок на торрент-файлы, которые содержат только списки хеш-сумм

[Профиль] [ЛС]
Показать сообщения:    
Ответить на тему

Текущее время: Сегодня 03:48

Часовой пояс: GMT + 4



Вы не можете начинать темы
Вы не можете отвечать на сообщения
Вы не можете редактировать свои сообщения
Вы не можете удалять свои сообщения
Вы не можете голосовать в опросах
Вы не можете прикреплять файлы к сообщениям
Вы не можете скачивать файлы