Муви 43 / Movie 43 (Стивен Брилл / Steven Brill, Питер Фаррелли / Peter Farrelly) [2013, США, комедия, BDRip] Dub + AVO (Гоблин) + Original + subs (Rus, Eng)

Ответить на тему
 
Автор Сообщение

user ®

Стаж: 7 лет 7 месяцев

Сообщений: 20008

Пост Пост: #1 от 17-Ноя-2013 17:15

[Цитировать]

Муви 43 / Movie 43-Релиз от HQCLUB
Год выпуска: 2013
Страна: США
Жанр: комедия
Продолжительность: 01:37:59
Перевод: Профессиональный (полное дублирование)
+ Авторский одноголосый Д.Пучков (Гоблин) (отдельно)
+ Оригинальная звуковая дорожка (отдельно)
Cубтитры: Русские, Английские (внешние srt*)-Режиссер: Стивен Брилл / Steven Brill, Питер Фаррелли / Peter Farrelly
В ролях: Холли Берри, Джерард Батлер, Анна Фэрис, Хью Джекман, Джонни Ноксвил, Кристофер Минц-Плассе, Шонн Уильям Скотт, Эмма Стоун, Кейт Уинслет, Деннис Куэйд, Наоми Уоттс, Ричард Гир, Ума Турман
О фильме: 25 cуперзвезд первой величины — в комедийном проекте, который состоит из двух десятков мини-новелл с нескончаемым потоком шуток, гэгов, острот и пародий, о страстях и страстишках человеческих.-Релиз:
Автор: sociolog_melvas
Качество: BDRip (источник: Тарантиныч / BDRemux / 1080p)
Формат: AVI
Видео: 704x384 (1.83:1), 23.976 fps, XviD build 65 ~1727 kbps avg, 0.27 bit/pixel
Аудио 1: 48 kHz, AC3 Dolby Digital, 3/2 (L,C,R,l,r) + LFE ch, ~384.00 kbps avg
Аудио 2: 48 kHz, AC3 Dolby Digital, 3/2 (L,C,R,l,r) + LFE ch, ~384.00 kbps avg (отдельно)
Аудио 3: 48 kHz, AC3 Dolby Digital, 3/2 (L,C,R,l,r) + LFE ch, ~384.00 kbps avg (отдельно)
Размер: 1486.90 Mb (1/3 DVD-R)
Скачать: Семпл-

Скриншоты

mi

Формат : AVI
Формат/Информация : Audio Video Interleave
Размер файла : 1,45 Гбайт
Продолжительность : 1 ч. 37 м.
Общий поток : 2121 Кбит/сек
Название фильма : Муви 43 / Movie 43 (2013) BDRip
Режиссёр : sociolog_melvas
Жанр : комедия
Программа кодирования : VirtualDubMod 1.5.10.2 (build 2540/release)
Примечание : 28.04.2013
Видео
Идентификатор : 0
Формат : MPEG-4 Visual
Профиль формата : Advanced Simple@L5
Параметр BVOP формата : 1
Параметр QPel формата : Нет
Параметр GMC формата : Без точки перехода
Параметр матрицы формата : Выборочная
Идентификатор кодека : XVID
Идентификатор кодека/Подсказка : XviD
Продолжительность : 1 ч. 37 м.
Битрейт : 1728 Кбит/сек
Ширина : 704 пикс.
Высота : 384 пикс.
Соотношение сторон : 16:9
Частота кадров : 23,976 кадр/сек
Цветовое пространство : YUV
Подвыборка цветности : 4:2:0
Битовая глубина : 8 бит
Тип развёртки : Прогрессивная
Метод сжатия : С потерями
Бит/(Пиксели*Кадры) : 0.267
Размер потока : 1,18 Гбайт (81%)
Библиотека кодирования : XviD 65
Аудио
Идентификатор : 1
Формат : AC-3
Формат/Информация : Audio Coding 3
Расширение режима : CM (complete main)
Идентификатор кодека : 2000
Продолжительность : 1 ч. 37 м.
Вид битрейта : Постоянный
Битрейт : 384 Кбит/сек
Каналы : 6 каналов
Расположение каналов : Front: L C R, Side: L R, LFE
Частота : 48,0 КГц
Битовая глубина : 16 бит
Метод сжатия : С потерями
Размер потока : 269 Мбайт (18%)
Выравнивание : Разделение по промежуткам
Продолжительность промежутка : 42 мс. (1,00 видеокадр)
Время предзагрузки промежутка : 500 ms
Скачать

Скачать торрент!

Как скачивать? · Что такое торрент? · Рейтинг и ограничения

Сайт не распространяет и не хранит электронные версии произведений, а лишь предоставляет доступ к создаваемому пользователями каталогу ссылок на торрент-файлы, которые содержат только списки хеш-сумм

[Профиль] [ЛС]

WorldCreator

Стаж: 3 года 2 месяца

Сообщений: 172

Пост Пост: #2 от 21-Ноя-2013 03:35 (спустя 3 дня)

[Цитировать]

На редкость мерзкое кино! Клюнул на актёров...
[Профиль] [ЛС]
Показать сообщения:    
Ответить на тему

Текущее время: Сегодня 00:07

Часовой пояс: GMT + 4



Вы не можете начинать темы
Вы не можете отвечать на сообщения
Вы не можете редактировать свои сообщения
Вы не можете удалять свои сообщения
Вы не можете голосовать в опросах
Вы не можете прикреплять файлы к сообщениям
Вы не можете скачивать файлы