Смурфики 2 / The Smurfs 2 (Раджа Госнелл / Raja Gosnell) [2013, мультфильм, фэнтези, комедия, BDRip] Dub

Ответить на тему
 
Автор Сообщение

user ®

Стаж: 13 лет

Сообщений: 15041

Пост Пост: #1 от 17-Ноя-2013 14:05

[Цитировать]

Смурфики 2 / The Smurfs 2«Увидеть Париж и... осмурфеть!»- Страна: США
Жанр: мультфильм, фэнтези, комедия, семейный
Год выпуска: 2013
Продолжительность: 01:44:54
Перевод: Профессиональный (полное дублирование)
Субтитры: Нет-Режиссер: Раджа Госнелл / Raja Gosnell-Роли озвучивали: Хэнк Азария (Gargamel), Нил Патрик Харрис (Patrick), Брендан Глисон (Victor), Джейма Мейс (Grace), Джонатан Уинтерс (Papa Smurf, озвучка), Кэти Перри (Smurfette, озвучка), Кристина Риччи (Vexy, озвучка), Дж.Б. Смув (Hackus, озвучка), Джордж Лопес (Grouchy Smurf, озвучка), Антон Ельчин (Clumsy Smurf, озвучка), Джон Оливер (Vanity Smurf, озвучка), Фрэнк Уэлкер (Azrael, озвучка)-Роли дублировали: Сергей Паршин (Papa Smurf), Нюша Шурочкина (Smurfette), Валерий Смекалов-Описание: Гаргамел создаёт Хакуса и Векси, как две капли воды похожую на смурфиков злобную парочку, надеясь всё-таки обрести магическую силу. Когда он узнаёт, что лишь настоящий смурф может дать ему то, что он хочет, и лишь Смурфетта способна превратить Хакуса и Векси в настоящих смурфов, Гаргамел похищает Смурфетту и берёт её с собой в Париж, планируя сделать её своей прислужницей. Но смурфики - Папа, Растяпа, Смельчак, Ворчун, Красавчик, Благоразумник - и их друзья из Нью-Йорка этого так не оставят. Тем более что к ним присоединился новорождённый Голубчик.-Рейтинг:

MPAA: - Рекомендуется присутствие родителей-Бюджет: $105 000 000
Сборы в США: $70 879 078
Сборы в России: $12 486 148
Сборы в мире: $346 445 105
Мировая премьера: 28 июля 2013
Релиз на DVD: 19 ноября 2013, «Columbia/Sony»
Релиз на Blu-ray: 19 ноября 2013, «Columbia/Sony»-Семпл-Качество: BDRip [The.Smurfs.2.2013.BDRemux.(1080p.).ExKinoRay]
Формат: AVI
Видео: 720x384 (1.88:1), 23.976 fps, XviD build 65 ~1594 kbps avg, 0.24 bit/pixel
Аудио: 48 kHz, AC3 Dolby Digital, 3/2 (L,C,R,l,r) + LFE ch, ~384 kbps
Субтитры: Отсутствуют

MI

Format : AVIFormat/Info : Audio Video InterleaveFile size : 1.46 GiBDuration : 1h 44mnOverall bit rate : 1 988 KbpsWriting application : VirtualDubMod 1.5.10.3 | www.virtualdub-fr.org || (build 2550/release)Writing library : VirtualDubMod build 2550/release
VideoID : 0Format : MPEG-4 VisualFormat profile : Advanced Simple@L5Format settings, BVOP : 2Format settings, QPel : NoFormat settings, GMC : No warppointsFormat settings, Matrix : CustomCodec ID : XVIDCodec ID/Hint : XviDDuration : 1h 44mnBit rate : 1 594 KbpsWidth : 720 pixelsHeight : 384 pixelsDisplay aspect ratio : 1.85:1Frame rate : 23.976 fpsColor space : YUVChroma subsampling : 4:2:0Bit depth : 8 bitsScan type : ProgressiveCompression mode : LossyBits/(Pixel*Frame) : 0.240Stream size : 1.17 GiB (80%)Writing library : XviD 65
AudioID : 1Format : AC-3Format/Info : Audio Coding 3Mode extension : CM (complete main)Format settings, Endianness : BigCodec ID : 2000Duration : 1h 44mnBit rate mode : ConstantBit rate : 384 KbpsChannel(s) : 6 channelsChannel positions : Front: L C R, Side: L R, LFESampling rate : 48.0 KHzBit depth : 16 bitsCompression mode : LossyStream size : 288 MiB (19%)Alignment : Split accross interleavesInterleave, duration : 42 ms (1.00 video frame)Interleave, preload duration : 500 ms
-
Скачать

Скачать торрент! Смурфики 2 / The Smurfs 2 (Раджа Госнелл / Raja Gosnell) [2013, мультфильм, фэнтези, комедия, BDRip] Dub

Как скачивать? · Что такое торрент? · Рейтинг и ограничения

Сайт не распространяет и не хранит электронные версии произведений, а лишь предоставляет доступ к создаваемому пользователями каталогу ссылок на торрент-файлы, которые содержат только списки хеш-сумм

[Профиль] [ЛС]
Показать сообщения:    
Ответить на тему

Текущее время: Сегодня 15:45

Часовой пояс: GMT + 4



Вы не можете начинать темы
Вы не можете отвечать на сообщения
Вы не можете редактировать свои сообщения
Вы не можете удалять свои сообщения
Вы не можете голосовать в опросах
Вы не можете прикреплять файлы к сообщениям
Вы не можете скачивать файлы