Околофутбола (Антон Борматов) [2013, драма, криминал, BDRip 720p]

Ответить на тему
 
Автор Сообщение

user ®

Стаж: 7 лет 7 месяцев

Сообщений: 20008

Пост Пост: #1 от 17-Ноя-2013 14:05

[Цитировать]

Околофутбола
Страна: Россия
Студия: кинокомпания СТВ при поддержке ФОНДА КИНО
Жанр: Драма, криминал
Год выхода: 2013
Продолжительность: 01:36:49
Перевод: Не требуется
Субтитры: Нет
Режиссер:
Антон Борматов
В ролях:
Александр Ратников, Иван Фоминов, Григорий Иванец, Павел Ерлыков, Дарья Мингазетдинова, Юлия Маньковская, Евгений Березин, Никита Кукушкин, Сергей Шнырев, Максим Павлов
Описание:
Фильм о самой закрытой части футбольных болельщиков — околофутбольных хулиганах. Они — самые агрессивные и жестокие представители мира футбольных фанатов. Они — элита околофутбола. Кем бы они ни были в обычной жизни — студентами или банкирами, музыкантами или автомеханиками, на самом деле все они — одна «фирма». Попасть в «фирму» очень сложно, но если ты в ней оказался — это на всю жизнь. И обратного пути нет.

MediaInfo:

Общее
Уникальный идентификатор : 218765013932356639555325642211604521725 (0xA4949BEEBDEA6611B7E42FD815BB62FD)
Полное имя : D:\Okolofootboll.2013.720p.BluRay.Rus.HDCLUB.mkv
Формат : Matroska
Версия формата : Version 2
Размер файла : 4,51 Гбайт
Продолжительность : 1 ч. 36 м.
Общий поток : 6664 Кбит/сек
Название фильма : HDCLUB present "Okolofootboll 2013"
Дата кодирования : UTC 2013-11-16 03:49:32
Программа кодирования : mkvmerge v5.8.0 ('No Sleep / Pillow') built on Sep 2 2012 15:37:04
Библиотека кодирования : libebml v1.2.3 + libmatroska v1.3.0
Видео
Идентификатор : 1
Формат : AVC
Формат/Информация : Advanced Video Codec
Профиль формата : High@L4.1
Параметр CABAC формата : Да
Параметр ReFrames формата : 9 кадров
Идентификатор кодека : V_MPEG4/ISO/AVC
Продолжительность : 1 ч. 36 м.
Битрейт : 5023 Кбит/сек
Ширина : 1280 пикселей
Высота : 720 пикселей
Соотношение сторон : 16:9
Режим частоты кадров : Постоянный
Частота кадров : 24,000 кадра/сек
Цветовое пространство : YUV
Субдискретизация насыщенности : 4:2:0
Битовая глубина : 8 бит
Тип развёртки : Прогрессивная
Бит/(Пиксели*Кадры) : 0.227
Размер потока : 3,40 Гбайт (75%)
Заголовок : Okolofootboll.2013.720p.BluRay.Rus.HDCLUB
Библиотека кодирования : x264 core 138 r2359+704+48 3f879a0 tMod [8-bit@all X86_64]
Настройки программы : cabac=1 / ref=9 / deblock=1:-3:-3 / analyse=0x3:0x133 / me=umh / subme=11 / psy=1 / fade_compensate=0.00 / psy_rd=1.00:0.00 / mixed_ref=1 / me_range=32 / chroma_me=1 / trellis=2 / 8x8dct=1 / cqm=0 / deadzone=21,11 / fast_pskip=0 / chroma_qp_offset=-2 / threads=12 / lookahead_threads=2 / sliced_threads=0 / nr=0 / decimate=1 / interlaced=0 / bluray_compat=0 / constrained_intra=0 / fgo=0 / bframes=7 / b_pyramid=2 / b_adapt=2 / b_bias=0 / direct=1 / weightb=1 / open_gop=0 / weightp=2 / keyint=240 / keyint_min=24 / scenecut=40 / intra_refresh=0 / rc_lookahead=60 / rc=crf / mbtree=0 / crf=17.7000 / qcomp=0.60 / qpmin=0:0:0 / qpmax=69:69:69 / qpstep=4 / vbv_maxrate=50000 / vbv_bufsize=62500 / crf_max=0.0 / nal_hrd=none / ip_ratio=1.30 / pb_ratio=1.20 / aq=2:0.80 / aq-sensitivity=10.00 / aq-factor=1.00:1.00:1.00 / aq2=0 / aq3=0
Язык : Russian
Default : Да
Forced : Нет
Основные цвета : BT.709
Характеристики трансфера : BT.709
Коэффициенты матрицы : BT.709
Аудио
Идентификатор : 2
Формат : DTS
Формат/Информация : Digital Theater Systems
Режим : 16
Параметр Endianness формата : Big
Идентификатор кодека : A_DTS
Продолжительность : 1 ч. 36 м.
Вид битрейта : Постоянный
Битрейт : 1509 Кбит/сек
Каналы : 6 каналов
Расположение каналов : Front: L C R, Side: L R, LFE
Частота : 48,0 КГц
Битовая глубина : 16 бит
Метод сжатия : С потерями
Размер потока : 1,02 Гбайт (23%)
Язык : Russian
Default : Да
Forced : Нет
Меню
00:00:00.000 : ru:Chapter 1
00:10:58.291 : ru:Chapter 2
00:23:09.250 : ru:Chapter 3
00:36:29.958 : ru:Chapter 4
00:48:11.250 : ru:Chapter 5
01:01:39.458 : ru:Chapter 6
01:13:50.000 : ru:Chapter 7
01:23:49.666 : ru:Chapter 8
Качество: BDRip 720p
Формат: MKV
Видео кодек: MPEG-4 AVC
Аудио кодек: DTS
Видео: MPEG-4 AVC, 1280x720, 24.000 fps, ~5023 Kbps
Аудио: DTS, 48 kHz, 6 ch, ~1509 kbps

Скриншоты:

Скачать

Скачать торрент!

Как скачивать? · Что такое торрент? · Рейтинг и ограничения

Сайт не распространяет и не хранит электронные версии произведений, а лишь предоставляет доступ к создаваемому пользователями каталогу ссылок на торрент-файлы, которые содержат только списки хеш-сумм

[Профиль] [ЛС]
Показать сообщения:    
Ответить на тему

Текущее время: Сегодня 10:55

Часовой пояс: GMT + 4



Вы не можете начинать темы
Вы не можете отвечать на сообщения
Вы не можете редактировать свои сообщения
Вы не можете удалять свои сообщения
Вы не можете голосовать в опросах
Вы не можете прикреплять файлы к сообщениям
Вы не можете скачивать файлы