Смертный приговор / Death Sentence (Джеймс Ван / James Wan) [2007, США, боевик, триллер, драма, криминал, BDRemux 1080p] MVO («Киномания») + DVO (П. Гланц и И. Королёва) + AVO (Ю. Немахов) + original eng + subs (rus, eng)

Ответить на тему
 
Автор Сообщение

user ®

Стаж: 7 лет 7 месяцев

Сообщений: 20008

Пост Пост: #1 от 17-Ноя-2013 14:05

[Цитировать]

Смертный приговор / Death Sentence
Страна: США
Жанр: боевик, триллер, драма, криминал
Год выпуска: 2007
Продолжительность: 01:45:30
Перевод #1: Профессиональный (многоголосый закадровый) [«Киномания»]
Перевод #2: Профессиональный (двухголосый закадровый) [Пётр Гланц и Инна Королёва]
Перевод #3: Авторский (одноголосый закадровый) [Юрий Немахов]
Оригинальная аудиодорожка: английский
Режиссер: Джеймс Ван / James Wan
В ролях: Кевин Бейкон, Гаррет Хедлунд, Келли Престон, Джордан Гаррет, Стюарт Лэфферти, Аиша Тайлер, Джон Гудман, Мэтью О’Лири, Эди Гатеги, Гектор Руис
Описание: Ник — менеджер крупной компании, обходительный и вежливый человек с репутацией отличного семьянина. Его жизнь была прекрасна, до тех пор, пока однажды он не стал свидетелем того, что полностью и бесповоротно сделало его иным. Поселившаяся в нём с той ужасной ночи ярость приводит его к твердой уверенности, что для защиты своей семьи он не остановится ни перед чем…

Сэмпл: ЯндексДиск
Тип релиза: BDRemux 1080p
Контейнер: MKV
Видео: 1920x1080, 23.976fps, VC-1, 18848 kbps
Аудио: DTS–HD HR 5.1, 48 kHz, 16 bits, 2046 kbps (ядро: DTS 5.1, 48 kHz, 16 bits, 1509 kbps) (RUS, MVO)
Аудио: DTS–HD HR 5.1, 48 kHz, 16 bits, 2046 kbps (ядро: DTS 5.1, 48 kHz, 16 bits, 1509 kbps) (RUS, DVO)
Аудио: AC-3 5.1, 48 kHz, 16 bits, 448 kbps (RUS, AVO)
Аудио: DTS–HD HR 5.1, 48 kHz, 16 bits, 2046 kbps (ядро: DTS 5.1, 48 kHz, 16 bits, 1509 kbps) (ENG)
Cубтитры: русские, английские

Тех.информация

  • Русская дорожка MVO получена наложением выделенного голоса с DVD на центр декодированного DTS-HD HR.
    * Спасибо пользователю sandyk.
  • Русская дорожка DVO получена наложением чистого голоса на центр декодированного DTS-HD HR.

MediaInfo

Общее
Уникальный идентификатор : 238078331447524138784380286860280703682 (0xB31C3800F27DC4E290F0DC487C47AAC2)
Полное имя : Death.Sentence.2007.P.P2.L1.Rus.Eng.BDRemux.1080p.mkv
Формат : Matroska
Версия формата : Version 2
Размер файла : 18,7 Гбайт
Продолжительность : 1 ч. 45 м.
Общий поток : 25,4 Мбит/сек
Дата кодирования : UTC 2013-11-14 14:16:45
Программа кодирования : mkvmerge v6.5.0 ('Isn't she lovely') built on Oct 20 2013 12:50:05
Библиотека кодирования : libebml v1.3.0 + libmatroska v1.4.1
Видео
Идентификатор : 1
Формат : VC-1
Профиль формата : Advanced@L3
Идентификатор кодека : V_MS/VFW/FOURCC / WVC1
Идентификатор кодека/Подсказка : Microsoft
Продолжительность : 1 ч. 45 м.
Битрейт : 18,3 Мбит/сек
Ширина : 1920 пикселей
Высота : 1080 пикселей
Соотношение сторон : 16:9
Режим частоты кадров : Постоянный
Частота кадров : 23,976 кадра/сек
Цветовое пространство : YUV
Субдискретизация насыщенности : 4:2:0
Битовая глубина : 8 бит
Тип развёртки : Прогрессивная
Метод сжатия : С потерями
Бит/(Пиксели*Кадры) : 0.369
Размер потока : 13,5 Гбайт (72%)
Язык : English
Default : Да
Forced : Нет
Аудио #1
Идентификатор : 2
Формат : DTS
Формат/Информация : Digital Theater Systems
Профиль формата : HRA / Core
Режим : 16
Параметр Endianness формата : Big
Идентификатор кодека : A_DTS
Продолжительность : 1 ч. 45 м.
Вид битрейта : Постоянный
Битрейт : 2046 Кбит/сек / 1509 Кбит/сек
Каналы : 6 каналов
Расположение каналов : Front: L C R, Side: L R, LFE
Частота : 48,0 КГц
Битовая глубина : 16 бит
Метод сжатия : С потерями
Размер потока : 1,51 Гбайт (8%)
Заголовок : Многоголосый («Киномания»)
Язык : Russian
Default : Да
Forced : Нет
Аудио #2
Идентификатор : 3
Формат : DTS
Формат/Информация : Digital Theater Systems
Профиль формата : HRA / Core
Режим : 16
Параметр Endianness формата : Big
Идентификатор кодека : A_DTS
Продолжительность : 1 ч. 45 м.
Вид битрейта : Постоянный
Битрейт : 2046 Кбит/сек / 1509 Кбит/сек
Каналы : 6 каналов
Расположение каналов : Front: L C R, Side: L R, LFE
Частота : 48,0 КГц
Битовая глубина : 16 бит
Метод сжатия : С потерями
Размер потока : 1,51 Гбайт (8%)
Заголовок : Двухголосый (П.Гланц и И.Королёва)
Язык : Russian
Default : Нет
Forced : Нет
Аудио #3
Идентификатор : 4
Формат : AC-3
Формат/Информация : Audio Coding 3
Расширение режима : CM (complete main)
Параметр Endianness формата : Big
Идентификатор кодека : A_AC3
Продолжительность : 1 ч. 45 м.
Вид битрейта : Постоянный
Битрейт : 448 Кбит/сек
Каналы : 6 каналов
Расположение каналов : Front: L C R, Side: L R, LFE
Частота : 48,0 КГц
Битовая глубина : 16 бит
Метод сжатия : С потерями
Размер потока : 338 Мбайт (2%)
Заголовок : Авторский (Ю.Немахов)
Язык : Russian
Default : Нет
Forced : Нет
Аудио #4
Идентификатор : 5
Формат : DTS
Формат/Информация : Digital Theater Systems
Профиль формата : HRA / Core
Режим : 16
Параметр Endianness формата : Big
Идентификатор кодека : A_DTS
Продолжительность : 1 ч. 45 м.
Вид битрейта : Постоянный
Битрейт : 2046 Кбит/сек / 1509 Кбит/сек
Каналы : 6 каналов
Расположение каналов : Front: L C R, Side: L R, LFE
Частота : 48,0 КГц
Битовая глубина : 16 бит
Метод сжатия : С потерями
Размер потока : 1,51 Гбайт (8%)
Язык : English
Default : Нет
Forced : Нет
Текст #1
Идентификатор : 6
Формат : UTF-8
Идентификатор кодека : S_TEXT/UTF8
Идентификатор кодека/Информация : UTF-8 Plain Text
Язык : Russian
Default : Нет
Forced : Нет
Текст #2
Идентификатор : 7
Формат : UTF-8
Идентификатор кодека : S_TEXT/UTF8
Идентификатор кодека/Информация : UTF-8 Plain Text
Язык : English
Default : Нет
Forced : Нет
Меню
00:00:00.000 : en:Chapter 1
00:07:41.544 : en:Chapter 2
00:13:37.984 : en:Chapter 3
00:22:00.694 : en:Chapter 4
00:30:44.384 : en:Chapter 5
00:40:19.709 : en:Chapter 6
00:51:01.350 : en:Chapter 7
00:58:56.450 : en:Chapter 8
01:08:30.690 : en:Chapter 9
01:15:13.968 : en:Chapter 10
01:23:28.545 : en:Chapter 11
01:30:01.438 : en:Chapter 12
01:40:38.157 : en:Chapter 13

Скриншот с названием

Скриншоты

Скачать

Скачать торрент!

Как скачивать? · Что такое торрент? · Рейтинг и ограничения

Сайт не распространяет и не хранит электронные версии произведений, а лишь предоставляет доступ к создаваемому пользователями каталогу ссылок на торрент-файлы, которые содержат только списки хеш-сумм

[Профиль] [ЛС]
Показать сообщения:    
Ответить на тему

Текущее время: Сегодня 14:33

Часовой пояс: GMT + 4



Вы не можете начинать темы
Вы не можете отвечать на сообщения
Вы не можете редактировать свои сообщения
Вы не можете удалять свои сообщения
Вы не можете голосовать в опросах
Вы не можете прикреплять файлы к сообщениям
Вы не можете скачивать файлы