Чужой среди нас / A Stranger Among Us (Сидни Люмет / Sidney Lumet) [1992, США, драма, мелодрама, криминал, BDRemux 1080p] MVO + AVO (Михалёв) + Original eng + Sub eng

Ответить на тему
 
Автор Сообщение

user ®

Стаж: 7 лет 7 месяцев

Сообщений: 20008

Пост Пост: #1 от 17-Ноя-2013 10:55

[Цитировать]

Чужой среди нас / A Stranger Among Us
Страна: США
Жанр: драма, мелодрама, криминал
Год выпуска: 1992
Продолжительность: 01:49:18
Перевод#1: Профессиональный (многоголосый закадровый)
Перевод#2: Авторский (одноголосый закадровый), Ю. Михалёв
Cубтитры: английские
Оригинальная аудиодорожка: английский
Режиссер: Сидни Люмет / Sidney Lumet
В ролях: Мелани Гриффит, Джон Пэнкоу, Трэйси Поллан, Ли Ричардсон, Миа Сара, Джейми Шеридан, Эрик Тал, Дэвид Маргулис, Бертт Харрис, Джеймс Гандольфини
Описание: В нью-йоркской общине хасидских евреев случилось экстраординарное происшествие - исчез молодой человек по имени Якоб Клаусман. Одновременно пропали алмазы на сумму 720000 долларов. Ни раввин, ни другие члены общины и не думают подозревать Якоба в краже и бегстве: то и другое противоречит писаным и неписаным законам жизни хасидских евреев. Правда, в полицию им все-таки пришлось обратиться, а потому к расследованию приступил опытный детектив...

Доп. информация: за работу над дорогами благодарим Linger babe
Тип релиза: BDRemux 1080p | One Good Cop 1991 / A Stranger Among Us 1992 1080p Blu-ray AVC DTS-HD MA 2.0 @ HDBits | sample
Контейнер: MKV
Видео: MPEG-4 AVC 1920x1080 (16:9), 23.976 fps, ~18.4 Mbps
Аудио #1: Russian AC3 2ch 48kHz 192Kbps | MVO
Аудио #2: Russian AC3 2ch 48kHz 192Kbps | AVO Михалев
Аудио #3: English DTS-HD MA / 2.0 / 48 kHz / 1805 kbps / 24-bit (DTS Core: 2.0 / 48 kHz / 1509 kbps / 24-bit) | Original
Формат субтитров: softsub (SRT)
Главы: есть

MediaInfo

General
Complete name : D:\...\A.Stranger.Among.Us.1992.1080p.Remux.AVC.Rus.Eng.mkv
Format : Matroska
Format version : Version 4 / Version 2
File size : 16.2 GiB
Duration : 1h 49mn
Overall bit rate mode : Variable
Overall bit rate : 21.2 Mbps
Movie name : A.Stranger.Among.Us.1992.1080p.Remux.AVC.Rus.Eng
Encoded date : UTC 2013-11-16 03:49:17
Writing application : mkvmerge v6.2.0 ('Promised Land') built on Apr 28 2013 12:22:01
Writing library : libebml v1.3.0 + libmatroska v1.4.0
Video
ID : 1
Format : AVC
Format/Info : Advanced Video Codec
Format profile : High@L4.1
Format settings, CABAC : Yes
Format settings, ReFrames : 4 frames
Format settings, GOP : M=3, N=24
Codec ID : V_MPEG4/ISO/AVC
Duration : 1h 49mn
Bit rate mode : Variable
Bit rate : 18.4 Mbps
Maximum bit rate : 25.0 Mbps
Width : 1 920 pixels
Height : 1 080 pixels
Display aspect ratio : 16:9
Frame rate mode : Constant
Frame rate : 23.976 fps
Standard : NTSC
Color space : YUV
Chroma subsampling : 4:2:0
Bit depth : 8 bits
Scan type : Progressive
Bits/(Pixel*Frame) : 0.370
Stream size : 14.0 GiB (87%)
Title : A Stranger Among Us (1992)
Language : English
Default : Yes
Forced : No
Color primaries : BT.709
Transfer characteristics : BT.709
Matrix coefficients : BT.709
Audio #1
ID : 2
Format : AC-3
Format/Info : Audio Coding 3
Mode extension : CM (complete main)
Format settings, Endianness : Big
Codec ID : A_AC3
Duration : 1h 49mn
Bit rate mode : Constant
Bit rate : 192 Kbps
Channel(s) : 2 channels
Channel positions : Front: L R
Sampling rate : 48.0 KHz
Bit depth : 16 bits
Compression mode : Lossy
Stream size : 150 MiB (1%)
Title : MVO
Language : Russian
Default : Yes
Forced : No
Audio #2
ID : 3
Format : AC-3
Format/Info : Audio Coding 3
Mode extension : CM (complete main)
Format settings, Endianness : Big
Codec ID : A_AC3
Duration : 1h 49mn
Bit rate mode : Constant
Bit rate : 192 Kbps
Channel(s) : 2 channels
Channel positions : Front: L R
Sampling rate : 48.0 KHz
Bit depth : 16 bits
Compression mode : Lossy
Stream size : 150 MiB (1%)
Title : AVO Mikhalev
Language : Russian
Default : No
Forced : No
Audio #3
ID : 4
Format : DTS
Format/Info : Digital Theater Systems
Format profile : MA / Core
Codec ID : A_DTS
Duration : 1h 49mn
Bit rate mode : Variable
Bit rate : 1 993 Kbps / 1 510 Kbps
Channel(s) : 2 channels
Channel positions : Front: L R
Sampling rate : 48.0 KHz
Bit depth : 24 bits
Compression mode : Lossless / Lossy
Title : Original
Language : English
Default : No
Forced : No
Text
ID : 5
Format : UTF-8
Codec ID : S_TEXT/UTF8
Codec ID/Info : UTF-8 Plain Text
Language : English
Default : No
Forced : No
Menu
00:00:00.000 : en:00:00:00.000
00:05:44.261 : en:00:05:44.261
00:12:41.761 : en:00:12:41.761
00:24:37.184 : en:00:24:37.184
00:35:19.868 : en:00:35:19.868
00:45:00.698 : en:00:45:00.698
00:55:09.723 : en:00:55:09.723
01:07:42.433 : en:01:07:42.433
01:20:11.140 : en:01:20:11.140
01:25:13.692 : en:01:25:13.692
01:34:43.344 : en:01:34:43.344
01:46:49.945 : en:01:46:49.945

Скриншоты


Скачать

Скачать торрент!

Как скачивать? · Что такое торрент? · Рейтинг и ограничения

Сайт не распространяет и не хранит электронные версии произведений, а лишь предоставляет доступ к создаваемому пользователями каталогу ссылок на торрент-файлы, которые содержат только списки хеш-сумм

[Профиль] [ЛС]
Показать сообщения:    
Ответить на тему

Текущее время: Сегодня 09:43

Часовой пояс: GMT + 4



Вы не можете начинать темы
Вы не можете отвечать на сообщения
Вы не можете редактировать свои сообщения
Вы не можете удалять свои сообщения
Вы не можете голосовать в опросах
Вы не можете прикреплять файлы к сообщениям
Вы не можете скачивать файлы