Призрачный патруль / R.I.P.D. (Роберт Швентке / Robert Schwentke) [2013, США, Фэнтези, боевик, комедия, BDRip-AVC] Dub + Sub Rus, Eng + Original Eng

Ответить на тему
 
Автор Сообщение

user ®

Стаж: 8 лет 1 месяц

Сообщений: 20008

Пост Пост: #1 от 17-Ноя-2013 05:40

[Цитировать]

Призрачный патруль / R.I.P.D.- Страна: США
Жанр: Фэнтези, боевик, комедия
Год выпуска: 2013
Продолжительность: 1h 35mn 54s
Перевод: Профессиональный (дублированный)
Cубтитры: русские (полные + форс.), английские (полные + SDH + SDH-Colored), украинские
Оригинальная аудиодорожка: английский
Режиссер: Роберт Швентке / Robert Schwentke
В ролях:
Райан Рейнольдс / Ryan Reynolds
Джефф Бриджес / Jeff Bridges
Кевин Бэйкон / Kevin Bacon
Мэри-Луиз Паркер, Стефани Зостак, Роберт Неппер, Мариса Миллер, Джеймс Хонг, Майк О’Мэлли, Девин Рэтрей-ОписаниеМолодой полицейский на пике своей карьеры, во время очередного захвата банды преступников погибает. Попав в потусторонний мир он узнает что и там нет покоя, с учетом его способностей ему предлагают работу в "ПП". Это отряд по борьбе с всякой нечистью, духами и призраками, состоящий в организации R.I.P.D. Условие такое, целых сто лет он должен горбатится в команде бессмертных полицейских, выхода нет он соглашается. В напарники ему достается вредный коп старшего возраста, который торчит там еще с времен дикого запада, эпохи ковбоев и бандитов. Работа не простая, духи и разные бежавшие твари могут скрываться даже в мире живых, иногда переселившись в людские тела наши копы делают свое дела и в нашем мире, им все под силу, они же элита.-Сэмпл

IMDb: 5.50 (35 556)
Качество видео: BDRip-AVC [R.I.P.D._2013_3D_REMUX_HDCLUB]
Формат видео: MKV
Видео: AVC 3440 Kbps 1152 x 488 (2.361) 23.976 fps
Аудио: AC-3 448 Kbps 6 channels, 48.0 KHz Rus Blu-ray CEE
Аудио 2: AC-3 448 Kbps 6 channels, 48.0 KHz Eng
Формат субтитров: softsub (SRT)

MediaInfo | Log

Log

raw [info]: 1152x488p 1:1 @ 2500000/104271 fps (cfr)
x264 [info]: using SAR=1/1
x264 [info]: using cpu capabilities: MMX2 SSE2Fast SSSE3 SSE4.2 AVX
x264 [info]: profile High, level 4.1
x264 [info]: frame I:1218 Avg QP:13.24 size:116148
x264 [info]: frame P:37457 Avg QP:16.72 size: 35199
x264 [info]: frame B:99292 Avg QP:19.87 size: 10214
x264 [info]: consecutive B-frames: 6.0% 5.2% 15.6% 21.2% 17.8% 25.4% 5.4% 1.8% 1.7%
x264 [info]: mb I I16..4: 7.8% 65.5% 26.8%
x264 [info]: mb P I16..4: 1.5% 15.0% 2.2% P16..4: 27.2% 33.3% 14.1% 3.5% 0.6% skip: 2.5%
x264 [info]: mb B I16..4: 0.2% 2.1% 0.2% B16..8: 34.5% 22.8% 4.2% direct: 5.2% skip:30.8% L0:43.1% L1:42.9% BI:14.0%
x264 [info]: 8x8 transform intra:79.4% inter:57.7%
x264 [info]: direct mvs spatial:97.5% temporal:2.5%
x264 [info]: coded y,uvDC,uvAC intra: 85.9% 86.7% 67.8% inter: 26.0% 23.7% 9.5%
x264 [info]: i16 v,h,dc,p: 17% 13% 7% 63%
x264 [info]: i8 v,h,dc,ddl,ddr,vr,hd,vl,hu: 12% 10% 7% 9% 12% 12% 13% 11% 14%
x264 [info]: i4 v,h,dc,ddl,ddr,vr,hd,vl,hu: 14% 12% 5% 8% 14% 12% 13% 9% 12%
x264 [info]: i8c dc,h,v,p: 41% 25% 18% 16%
x264 [info]: Weighted P-Frames: Y:3.2% UV:1.9%
x264 [info]: ref P L0: 50.7% 10.5% 15.5% 6.2% 4.7% 3.4% 2.9% 1.9% 1.5% 1.3% 1.2% 0.3% 0.0%
x264 [info]: ref B L0: 73.2% 11.7% 5.7% 2.8% 2.2% 1.6% 1.3% 0.8% 0.5% 0.2%
x264 [info]: ref B L1: 91.2% 8.8%
x264 [info]: kb/s:3439.60
x264 [total]: encoded 137967 frames, 9.01 fps, 3439.60 kb/s
Format : Matroska
Format version : Version 4 / Version 2
File size : 2.91 GiB
Duration : 1h 35mn
Overall bit rate : 4 338 Kbps
Encoded date : UTC 2013-11-09 03:21:27
Writing application : mkvmerge v6.5.0 ('Isn't she lovely') built on Oct 20 2013 12:50:05
Writing library : libebml v1.3.0 + libmatroska v1.4.1
Video
ID : 1
Format : AVC
Format/Info : Advanced Video Codec
Format profile : High@L4.1
Format settings, CABAC : Yes
Format settings, ReFrames : 11 frames
Codec ID : V_MPEG4/ISO/AVC
Duration : 1h 35mn
Bit rate : 3 440 Kbps
Width : 1 152 pixels
Height : 488 pixels
Display aspect ratio : 2.35:1
Frame rate mode : Constant
Frame rate : 23.976 fps
Color space : YUV
Chroma subsampling : 4:2:0
Bit depth : 8 bits
Scan type : Progressive
Bits/(Pixel*Frame) : 0.255
Stream size : 2.25 GiB (77%)
Writing library : x264 core 138 r2358 9e941d1
Encoding settings : cabac=1 / ref=11 / deblock=1:-2:-1 / analyse=0x3:0x133 / me=umh / subme=11 / psy=1 / psy_rd=1.00:0.05 / mixed_ref=1 / me_range=32 / chroma_me=1 / trellis=2 / 8x8dct=1 / cqm=0 / deadzone=21,11 / fast_pskip=0 / chroma_qp_offset=-3 / threads=12 / lookahead_threads=2 / sliced_threads=0 / nr=0 / decimate=1 / interlaced=0 / bluray_compat=0 / constrained_intra=0 / bframes=8 / b_pyramid=2 / b_adapt=2 / b_bias=0 / direct=3 / weightb=1 / open_gop=0 / weightp=2 / keyint=250 / keyint_min=23 / scenecut=40 / intra_refresh=0 / rc_lookahead=60 / rc=2pass / mbtree=1 / bitrate=3440 / ratetol=1.0 / qcomp=0.60 / qpmin=0 / qpmax=69 / qpstep=4 / cplxblur=20.0 / qblur=0.5 / ip_ratio=1.40 / aq=1:1.00
Language : English
Default : Yes
Forced : No
Audio #1
ID : 2
Format : AC-3
Format/Info : Audio Coding 3
Mode extension : CM (complete main)
Format settings, Endianness : Big
Codec ID : A_AC3
Duration : 1h 35mn
Bit rate mode : Constant
Bit rate : 448 Kbps
Channel(s) : 6 channels
Channel positions : Front: L C R, Side: L R, LFE
Sampling rate : 48.0 KHz
Bit depth : 16 bits
Compression mode : Lossy
Stream size : 307 MiB (10%)
Title : Dub Blu-ray CEE
Language : Russian
Default : Yes
Forced : No
Audio #2
ID : 3
Format : AC-3
Format/Info : Audio Coding 3
Mode extension : CM (complete main)
Format settings, Endianness : Big
Codec ID : A_AC3
Duration : 1h 35mn
Bit rate mode : Constant
Bit rate : 448 Kbps
Channel(s) : 6 channels
Channel positions : Front: L C R, Side: L R, LFE
Sampling rate : 48.0 KHz
Bit depth : 16 bits
Compression mode : Lossy
Stream size : 307 MiB (10%)
Title : Eng (Original)
Language : English
Default : No
Forced : No
Text #1
ID : 4
Format : UTF-8
Codec ID : S_TEXT/UTF8
Codec ID/Info : UTF-8 Plain Text
Title : Rus Forced
Language : Russian
Default : Yes
Forced : No
Text #2
ID : 5
Format : UTF-8
Codec ID : S_TEXT/UTF8
Codec ID/Info : UTF-8 Plain Text
Title : Rus
Language : Russian
Default : No
Forced : No
Text #3
ID : 6
Format : UTF-8
Codec ID : S_TEXT/UTF8
Codec ID/Info : UTF-8 Plain Text
Title : Ukrainian
Language : Ukrainian
Default : No
Forced : No
Text #4
ID : 7
Format : UTF-8
Codec ID : S_TEXT/UTF8
Codec ID/Info : UTF-8 Plain Text
Title : Eng
Language : English
Default : No
Forced : No
Text #5
ID : 8
Format : UTF-8
Codec ID : S_TEXT/UTF8
Codec ID/Info : UTF-8 Plain Text
Title : Eng SDH
Language : English
Default : No
Forced : No
Text #6
ID : 9
Format : UTF-8
Codec ID : S_TEXT/UTF8
Codec ID/Info : UTF-8 Plain Text
Title : Eng SDH-COLORED
Language : English
Default : No
Forced : No
Menu
00:00:00.000 : en:00:00:00.000
00:03:57.112 : en:00:03:57.112
00:09:13.136 : en:00:09:13.136
00:14:30.578 : en:00:14:30.578
00:17:58.411 : en:00:17:58.411
00:22:30.599 : en:00:22:30.599
00:27:09.503 : en:00:27:09.503
00:33:33.511 : en:00:33:33.511
00:38:46.157 : en:00:38:46.157
00:43:27.647 : en:00:43:27.647
00:46:31.747 : en:00:46:31.747
00:52:04.038 : en:00:52:04.038
00:55:52.099 : en:00:55:52.099
01:02:15.982 : en:01:02:15.982
01:07:01.100 : en:01:07:01.100
01:10:35.690 : en:01:10:35.690
01:13:16.309 : en:01:13:16.309
01:17:52.126 : en:01:17:52.126
01:23:00.934 : en:01:23:00.934
01:27:27.909 : en:01:27:27.909

Скриншоты

Скачать

Скачать торрент!

Как скачивать? · Что такое торрент? · Рейтинг и ограничения

Сайт не распространяет и не хранит электронные версии произведений, а лишь предоставляет доступ к создаваемому пользователями каталогу ссылок на торрент-файлы, которые содержат только списки хеш-сумм

[Профиль] [ЛС]
Показать сообщения:    
Ответить на тему

Текущее время: Сегодня 00:15

Часовой пояс: GMT + 4



Вы не можете начинать темы
Вы не можете отвечать на сообщения
Вы не можете редактировать свои сообщения
Вы не можете удалять свои сообщения
Вы не можете голосовать в опросах
Вы не можете прикреплять файлы к сообщениям
Вы не можете скачивать файлы