Крыша / The Rooftop / Tian tai ai qing (Джей Чоу / Jay Chou) [2013, Тайвань, мелодрама, мюзикл, комедия, боевик, DVDRip] Sub rus

Ответить на тему
 
Автор Сообщение

user ®

Стаж: 13 лет

Сообщений: 15071

Пост Пост: #1 от 17-Ноя-2013 02:30

[Цитировать]

Крыша / The Rooftop / Tian tai ai qing
Страна: Тайвань
Жанр: мелодрама, мюзикл, комедия, боевик
Год выпуска: 2013
Продолжительность: 01:51:58
Перевод: Субтитры
Доп.инфо о переводе: Перевод – julz_nsk
Cубтитры: русские, отключаемые, srt
Оригинальная аудиодорожка: китайский
Режиссер: Джей Чоу / Jay Chou
Сценарий: Джей Чоу / Jay Chou
Оператор: Марк Ли / Mark Lee
Композитор: Джей Чоу / Jay Chou
В ролях: Jay Chou/ Джей Чоу в роли Воска
Alan Ko / Алан Ко в роли Тэмпуры
Li Xinai / Ли Синай в роли Старлинг
Song Jian-Zhang / Сун Цзяньчжан в роли Яйца
Huang Jun-Lang / Хуан Цзюньлан в роли Алана
Eric Tsang / Эрик Цан в роли доктора Бо
Wang Xueqi / Ван Сюэци в роли Ранго
Описание: На крыше, в выдуманном мире живет своей жизнью компания молодых людей.
Живут они бедно, но беззаботно, много танцуют и поют. Но есть мир, где живут другие, у которых много денег и власти.
Воск, лидер компании, давно влюблен в девушку с рекламного щита Старлинг. Случай сводит их на съемочной площадке.
Между ними возникают романтические отношения. Но им мешают кинозвезда Вильям и городской бандит Рыжий Громила.

IMDB: 6.3/10 (429 votes)
http://multi-up.com/923850
Качество видео: DVDRip
Формат видео: AVI
Видео кодек: XviD
Аудио кодек: AC-3
Видео: 704х304, MPEG-4 AVC, 23.976 fps, ~ 1 671 kbps avg, 0.326 bit/pixel
Аудио: 48 kHz, 2 ch, ~ 192 kbps (Mandarin)
Формат субтитров: softsub (SRT)

MediaInfo

General
Complete name : H:\The Rooftop\The Rooftop.avi
Format : AVI
Format/Info : Audio Video Interleave
File size : 1.46 GiB
Duration : 1h 51mn
Overall bit rate : 1 872 Kbps
Writing application : VirtualDubMod 1.5.10.3 | www.virtualdub-fr.org || (build 2550/release)
Writing library : VirtualDubMod build 2550/release
Video #0
ID : 0
Format : MPEG-4 Visual
Format profile : AdvancedSimple@L5
Format settings, BVOP : Yes
Format settings, QPel : No
Format settings, GMC : No warppoints
Format settings, Matrix : Default (MPEG)
Codec ID : XVID
Codec ID/Hint : XviD
Duration : 1h 51mn
Bit rate : 1 671 Kbps
Width : 704 pixels
Height : 304 pixels
Display aspect ratio : 2.35:1
Frame rate : 23.976 fps
Resolution : 24 bits
Colorimetry : 4:2:0
Scan type : Progressive
Bits/(Pixel*Frame) : 0.326
Stream size : 1.31 GiB (89%)
Writing library : XviD 1.2.1 (UTC 2008-12-04)
Audio #1
ID : 1
Format : AC-3
Format/Info : Audio Coding 3
Codec ID : 2000
Duration : 1h 51mn
Bit rate mode : Constant
Bit rate : 192 Kbps
Channel(s) : 2 channels
Channel positions : L R
Sampling rate : 48.0 KHz
Stream size : 154 MiB (10%)
Alignment : Split accross interleaves
Interleave, duration : 42 ms (1.00 video frame)
Interleave, preload duration : 500 ms

Скриншот с названием фильма

Скриншоты


Субтитры

1
00:00:40,360 --> 00:00:43,489
Замах - на 100,
результат - нулевка!
2
00:00:46,360 --> 00:00:48,404
Все путем! Главное,
красиво замахнуться.
3
00:00:48,405 --> 00:00:50,323
У меня есть фотографии,
где ты позируешь.
4
00:00:50,360 --> 00:00:52,862
Эй, Тэмпура, твоя очередь.
5
00:00:59,320 --> 00:01:00,621
Черт!
6
00:01:01,360 --> 00:01:04,388
Бросок не получился.
Голова виновата.
7
00:01:05,887 --> 00:01:07,444
Все сюда! Заходите!
8
00:01:07,445 --> 00:01:09,488
Пришли ли вы сюда посмотреть
шоу или подлечиться? Неважно.
9
00:01:09,520 --> 00:01:11,521
Доктор Бо поможет всем.
10
00:01:11,522 --> 00:01:15,864
Сегодня вам повезло.
Мне есть, что вам предложить.
11
00:01:15,980 --> 00:01:17,441
Вы участвовали
в аптечном шоу?
12
00:01:17,480 --> 00:01:19,399
Ведь нет?
13
00:01:19,963 --> 00:01:23,368
Шоу делает людей радостнее,
а радость вылечит от всех болезней.
14
00:01:23,400 --> 00:01:26,289
- Вы готовы?
- Да!
15
00:01:29,219 --> 00:01:31,041
Что за ребенок? Когда
он прекратит опаздывать?
16
00:01:31,107 --> 00:01:32,627
Начинайте!
17
00:01:33,636 --> 00:01:35,288
Приготовьтесь...
18
00:01:35,320 --> 00:01:37,288
Шоу начинается!
19
00:01:52,863 --> 00:01:55,486
Как дела?
20
00:02:00,106 --> 00:02:02,181
У нас сегодня скидки!
21
00:02:53,366 --> 00:02:55,965
Папа, они должны
в конце замереть!
22
00:02:56,000 --> 00:02:58,930
Это только шоу. Иди, иди.
23
00:02:59,036 --> 00:03:02,104
- Вам понравилось?
- Да!
24
00:03:05,451 --> 00:03:07,609
Знакомые хулиганы...
25
00:03:12,937 --> 00:03:15,402
Сегодня в продаже новейшее
лекарство. 70 центов за пачку!
26
00:03:15,440 --> 00:03:17,481
Сделает из вашей женщины
секс-бомбу. Из мужчины...
27
00:03:17,482 --> 00:03:20,319
- Кого?
- Секс-гиганта!
28
00:03:20,320 --> 00:03:22,426
Монстра в постели!
29
00:03:22,599 --> 00:03:25,519
- Кто хочет взять? Смелее!
- Мне десять!
30
00:03:25,678 --> 00:03:27,448
Не надо жадничать!
Сюда, пожалуйста.
Скачать

Скачать торрент! Крыша / The Rooftop / Tian tai ai qing (Джей Чоу / Jay Chou) [2013, Тайвань, мелодрама, мюзикл, комедия, боевик, DVDRip] Sub rus

Как скачивать? · Что такое торрент? · Рейтинг и ограничения

Сайт не распространяет и не хранит электронные версии произведений, а лишь предоставляет доступ к создаваемому пользователями каталогу ссылок на торрент-файлы, которые содержат только списки хеш-сумм

[Профиль] [ЛС]
Показать сообщения:    
Ответить на тему

Текущее время: Сегодня 21:44

Часовой пояс: GMT + 4



Вы не можете начинать темы
Вы не можете отвечать на сообщения
Вы не можете редактировать свои сообщения
Вы не можете удалять свои сообщения
Вы не можете голосовать в опросах
Вы не можете прикреплять файлы к сообщениям
Вы не можете скачивать файлы