Курортный туман (Арман Геворгян) [2012, Россия, детектив, триллер, DVDRip]

Ответить на тему
 
Автор Сообщение

user ®

Стаж: 7 лет 7 месяцев

Сообщений: 20008

Пост Пост: #1 от 17-Ноя-2013 02:30

[Цитировать]

Курортный туман- Страна: Россия
Жанр: детектив, триллер
Год выпуска: 2012
Продолжительность: 01:32:20-Режиссер: Арман Геворгян
В ролях: Алёна Бабенко, Эльдар Лебедев, Александр Рапопорт, Алена Стебунова, Ксения Непотребная, Павел Кузьмин, Карен Мартиросян, Юрий Кормушин, Вячеслав Кулаков, Александр Катин, Ирина Чериченко, Ян Цапник-Описание: В курортном городе происходит странное и загадочное убийство олигарха Владимира Серого. Криминальная полиция начинает расследование, в которое вовлечены люди из близкого окружения жертвы. Во время расследования происходят не менее загадочные убийства лиц так или иначе причастных к этому делу.
Молодая красивая женщина Александра Богачева на правах частного юриста олигарха Серого помогает следователям разобраться во всех хитросплетениях семейных и внесемейных отношений убитого. В этом деле она сотрудничает с молодым лейтенантом Костей, сотрудником местной полиции.
В ходе расследования выясняется, что причины убийства кроются в далекой молодости жертвы.-
-

Доп. Информация

Сценарий: Михаил Погосов
Продюсер: Михаил Погосов
Оператор: Сурен Тадевосян
Композитор: С. Егиянц
Релиз на DVD: 5 сентября 2013,
«Мистерия Звука»
-Качество: DVDRip
Контейнер: AVI
Видео: XviD, 720x400 (16:9), 2054 kbps, 25 fps, 0,285 bpp
Аудио: AC3 / 2.0 / 48 kHz / 192 kbps / 16 bit-

Media Info

General
Complete name : G:\Kyrortnyj.tyman.2012.O.DVDRip_1.46Gb.avi
Format : AVI
Format/Info : Audio Video Interleave
File size : 1.46 GiB
Duration : 1h 32mn
Overall bit rate : 2 256 Kbps
Writing application : VirtualDubMod 1.5.10.2 (build 2540/release)
Writing library : VirtualDubMod build 2540/release
Video
ID : 0
Format : MPEG-4 Visual
Format profile : Advanced Simple@L5
Format settings, BVOP : 2
Format settings, QPel : No
Format settings, GMC : No warppoints
Format settings, Matrix : Default (MPEG)
Codec ID : XVID
Codec ID/Hint : XviD
Duration : 1h 32mn
Bit rate : 2 055 Kbps
Width : 720 pixels
Height : 400 pixels
Display aspect ratio : 16:9
Frame rate : 25.000 fps
Color space : YUV
Chroma subsampling : 4:2:0
Bit depth : 8 bits
Scan type : Progressive
Compression mode : Lossy
Bits/(Pixel*Frame) : 0.285
Stream size : 1.33 GiB (91%)
Writing library : XviD 1.2.1 (UTC 2008-12-04)
Audio
ID : 1
Format : AC-3
Format/Info : Audio Coding 3
Mode extension : CM (complete main)
Codec ID : 2000
Duration : 1h 32mn
Bit rate mode : Constant
Bit rate : 192 Kbps
Channel(s) : 2 channels
Channel positions : Front: L R
Sampling rate : 48.0 KHz
Bit depth : 16 bits
Compression mode : Lossy
Stream size : 127 MiB (9%)
Alignment : Split accross interleaves
Interleave, duration : 40 ms (1.00 video frame)
Interleave, preload duration : 500 ms

Скриншот с названием фильма

Скриншоты

Скачать

Скачать торрент!

Как скачивать? · Что такое торрент? · Рейтинг и ограничения

Сайт не распространяет и не хранит электронные версии произведений, а лишь предоставляет доступ к создаваемому пользователями каталогу ссылок на торрент-файлы, которые содержат только списки хеш-сумм

[Профиль] [ЛС]
Показать сообщения:    
Ответить на тему

Текущее время: Сегодня 08:40

Часовой пояс: GMT + 4



Вы не можете начинать темы
Вы не можете отвечать на сообщения
Вы не можете редактировать свои сообщения
Вы не можете удалять свои сообщения
Вы не можете голосовать в опросах
Вы не можете прикреплять файлы к сообщениям
Вы не можете скачивать файлы