Со мною вот что происходит (Виктор Шамиров) [2012, Россия, мелодрама, комедия, DVDRip]

Ответить на тему
 
Автор Сообщение

user ®

Стаж: 7 лет 7 месяцев

Сообщений: 20008

Пост Пост: #1 от 17-Ноя-2013 02:30

[Цитировать]

Со мною вот что происходит- Страна: Россия
Жанр: мелодрама, комедия
Год выпуска: 2012
Продолжительность: 01:13:40-Перевод: Не требуется
Субтитры: нет
Режиссер: Виктор Шамиров
В ролях: Гоша Куценко, Виктор Шамиров, Александра Петрова, Олеся Железняк, Александр Робак, Маргарита Шубина, Павел Сборщиков, Мария Порошина, Николай Чиндяйкин, Александр Синюков, Яна Львова-Описание: 31 декабря. Московские невозможные пробки. Спешка без результатов, помощь, от которой никому не становится легче. Разговоры о бесконечных мелочах, в которых проходит жизнь - а может, уже и прошла. Об отце, которому осталось всего ничего, и ничего не сделаешь. О планах пятнадцатилетней девочки на жизнь: можно стать онкологом, можно - дизайнером еды. О том, что было, и что теперь.-
-

Доп. Информация

Сценарий: Виктор Шамиров, Гоша Куценко
Продюсер: Эдуард Илоян, Гоша Куценко, Андрей Новиков, Евгений Пивоваров, Алексей Троцюк
Оператор: Семён Яковлев
Композитор: Микаэл Таривердиев
Сборы в России: $17 459
Мировая премьера: 19 ноября 2012
-Качество: DVDRip
Контейнер: AVI
Видео: XviD, 720x304 (2.35:1), 2197 kbps, 25 fps, 0,402 bpp
Аудио: AC3 / 2.0 / 48 kHz / 448 kbps / 16 bit-

Media Info

General
Complete name : G:\So.mnou.vot.chto.proishodit.2012.O_DVDRip.avi
Format : AVI
Format/Info : Audio Video Interleave
File size : 1.37 GiB
Duration : 1h 13mn
Overall bit rate : 2 656 Kbps
Writing application : VirtualDubMod 1.5.10.3 | www.virtualdub-fr.org || (build 2550/release)
Writing library : VirtualDubMod build 2550/release
Video
ID : 0
Format : MPEG-4 Visual
Format profile : Advanced Simple@L5
Format settings, BVOP : 2
Format settings, QPel : No
Format settings, GMC : No warppoints
Format settings, Matrix : Default (MPEG)
Codec ID : XVID
Codec ID/Hint : XviD
Duration : 1h 13mn
Bit rate : 2 198 Kbps
Width : 720 pixels
Height : 304 pixels
Display aspect ratio : 2.35:1
Frame rate : 25.000 fps
Color space : YUV
Chroma subsampling : 4:2:0
Bit depth : 8 bits
Scan type : Progressive
Compression mode : Lossy
Bits/(Pixel*Frame) : 0.402
Stream size : 1.13 GiB (83%)
Writing library : XviD 1.2.1 (UTC 2008-12-04)
Audio
ID : 1
Format : AC-3
Format/Info : Audio Coding 3
Mode extension : CM (complete main)
Codec ID : 2000
Duration : 1h 13mn
Bit rate mode : Constant
Bit rate : 448 Kbps
Channel(s) : 2 channels
Channel positions : Front: L R
Sampling rate : 48.0 KHz
Bit depth : 16 bits
Compression mode : Lossy
Stream size : 236 MiB (17%)
Alignment : Split accross interleaves
Interleave, duration : 40 ms (1.00 video frame)
Interleave, preload duration : 500 ms

Скриншот с названием фильма

Скриншоты

Скачать

Скачать торрент!

Как скачивать? · Что такое торрент? · Рейтинг и ограничения

Сайт не распространяет и не хранит электронные версии произведений, а лишь предоставляет доступ к создаваемому пользователями каталогу ссылок на торрент-файлы, которые содержат только списки хеш-сумм

[Профиль] [ЛС]
Показать сообщения:    
Ответить на тему

Текущее время: Сегодня 00:44

Часовой пояс: GMT + 4



Вы не можете начинать темы
Вы не можете отвечать на сообщения
Вы не можете редактировать свои сообщения
Вы не можете удалять свои сообщения
Вы не можете голосовать в опросах
Вы не можете прикреплять файлы к сообщениям
Вы не можете скачивать файлы