Одноклассники 2 / Grown Ups 2 (Деннис Дуган / Dennis Dugan) [2013 г., США, комедия, BDRip] Dub + Original + Sub (Rus, Eng)

Ответить на тему
 
Автор Сообщение

user ®

Стаж: 7 лет 7 месяцев

Сообщений: 20008

Пост Пост: #1 от 17-Ноя-2013 02:30

[Цитировать]

Одноклассники 2Grown Ups 2-«They'll do anything for their families... except grow up»- Год выпуска: 2013
Страна: США-Жанр: комедия
Продолжительность: 01:40:58
Перевод: Профессиональный (полное дублирование) [Line]
Субтитры: русские, английские-Режиссер: Деннис Дуган / Dennis Dugan
Сценарий: Фред Вульф / Fred Wolf, Адам Сэндлер / Adam Sandler, Тим Херлихи / Tim Herlihy
Продюсер: Джек Джиррапуто / Jack Giarraputo, Адам Сэндлер / Adam Sandler, Кевин Грэйди / Kevin Grady, Дэрил Касс / Daryl Kass
Оператор: Тео ван де Санде / Theo van de Sande
Композитор: Руперт Грегсон-Уильямс / Rupert Gregson-Williams-В ролях: Адам Сэндлер (Lenny Feder), Кевин Джеймс (Eric Lamonsoff), Крис Рок (Kurt McKenzie), Дэвид Спейд (Marcus Higgins), Сальма Хайек (Roxanne Chase-Feder), Майя Рудольф (Deanne McKenzie), Мария Белло (Sally Lamonsoff), Ник Свардсон (Nick), Александр Людвиг (Braden), Колин Куинн (Dickie Bailey), Стив Бушеми (Wiley), Тэйлор Лотнер (Frat Boy Andy, в титрах не указан)
Дублёры: Всеволод Кузнецов (Lenny Feder), Михаил Георгиу (Eric Lamonsoff), Диомид Виноградов (Kurt McKenzie), Дмитрий Филимонов (Marcus Higgins), Денис Беспалый (Dickie Bailey), Александр Груздев (Officer Fluzoo), Лиза Мартиросова (Charlotte Mackenzie), Рудольф Панков (Kmart Employee; Dr. Larry)-Описание: После того как Ленни Федер переезжает с семьей обратно в родной город, он и его друзья извлекут немало уроков, когда их дети окончат школу...-kinopoisk.ru: 6.021 (15 976)
imdb.com: 5.20 (36 082)
MPAA: PG-13 - Детям до 13 лет просмотр не желателен-После выхода лицензии рип будет перезалит-Качество: BDRip / Grown.Ups.2.2013.BluRay.1080p.AVC.DTS-HD.MA5.1-CHDBits
Контейнер: AVI
Видео: 720x384 (1.88:1), 23.976 fps, XviD MPEG-4 ~2185 kbps avg, 0.33 bit/pixel
Аудио I: 48 kHz, AC3 Dolby Digital, 3/2 (L,C,R,l,r) + LFE ch, ~384 kbps (Rus)
Аудио II: 48 kHz, AC3 Dolby Digital, 3/2 (L,C,R,l,r) + LFE ch, ~384 kbps (Eng)-

MediaInfo

General
Complete name                            : E:\Рипы\Grown.Ups.2.2013.BDRip.All.Films\Grown.Ups.2.2013.BDRip.All.Films.avi
Format                                   : AVI
Format/Info                              : Audio Video Interleave
Format profile                           : OpenDML
File size                                : 2.13 GiB
Duration                                 : 1h 40mn
Overall bit rate                         : 3 024 Kbps
Writing application                      : VirtualDubMod 1.5.10.3 | www.virtualdub-fr.org || (build 2550/release)
Writing library                          : VirtualDubMod build 2550/release
Video
ID                                       : 0
Format                                   : MPEG-4 Visual
Format profile                           : Advanced Simple@L5
Format settings, BVOP                    : 2
Format settings, QPel                    : No
Format settings, GMC                     : No warppoints
Format settings, Matrix                  : Custom
Codec ID                                 : XVID
Codec ID/Hint                            : XviD
Duration                                 : 1h 40mn
Bit rate                                 : 2 175 Kbps
Width                                    : 720 pixels
Height                                   : 384 pixels
Display aspect ratio                     : 1.85:1
Frame rate                               : 23.976 fps
Color space                              : YUV
Chroma subsampling                       : 4:2:0
Bit depth                                : 8 bits
Scan type                                : Progressive
Compression mode                         : Lossy
Bits/(Pixel*Frame)                       : 0.328
Stream size                              : 1.53 GiB (72%)
Writing library                          : XviD 65
Audio #1
ID                                       : 1
Format                                   : AC-3
Format/Info                              : Audio Coding 3
Mode extension                           : CM (complete main)
Format settings, Endianness              : Big
Codec ID                                 : 2000
Duration                                 : 1h 40mn
Bit rate mode                            : Constant
Bit rate                                 : 384 Kbps
Channel(s)                               : 6 channels
Channel positions                        : Front: L C R, Side: L R, LFE
Sampling rate                            : 48.0 KHz
Bit depth                                : 16 bits
Compression mode                         : Lossy
Stream size                              : 277 MiB (13%)
Alignment                                : Split accross interleaves
Interleave, duration                     : 42 ms (1.00 video frame)
Interleave, preload duration             : 500 ms
Audio #2
ID                                       : 2
Format                                   : AC-3
Format/Info                              : Audio Coding 3
Mode extension                           : CM (complete main)
Format settings, Endianness              : Big
Codec ID                                 : 2000
Duration                                 : 1h 40mn
Bit rate mode                            : Constant
Bit rate                                 : 448 Kbps
Channel(s)                               : 6 channels
Channel positions                        : Front: L C R, Side: L R, LFE
Sampling rate                            : 48.0 KHz
Bit depth                                : 16 bits
Compression mode                         : Lossy
Stream size                              : 324 MiB (15%)
Alignment                                : Split accross interleaves
Interleave, duration                     : 42 ms (1.00 video frame)
Interleave, preload duration             : 500 ms

-

Сэмпл

Скачать

Скриншоты

Скачать

Скачать торрент!

Как скачивать? · Что такое торрент? · Рейтинг и ограничения

Сайт не распространяет и не хранит электронные версии произведений, а лишь предоставляет доступ к создаваемому пользователями каталогу ссылок на торрент-файлы, которые содержат только списки хеш-сумм

[Профиль] [ЛС]
Показать сообщения:    
Ответить на тему

Текущее время: Сегодня 23:51

Часовой пояс: GMT + 4



Вы не можете начинать темы
Вы не можете отвечать на сообщения
Вы не можете редактировать свои сообщения
Вы не можете удалять свои сообщения
Вы не можете голосовать в опросах
Вы не можете прикреплять файлы к сообщениям
Вы не можете скачивать файлы