Перси Джексон и Море чудовищ / Percy Jackson: Sea of Monsters (Тор Фройденталь / Thor Freudenthal) [2013, США, фэнтези, приключения, семейный, WEB-DLRip] Dub (Line)

Ответить на тему
 
Автор Сообщение

user ®

Стаж: 7 лет 7 месяцев

Сообщений: 20008

Пост Пост: #1 от 17-Ноя-2013 02:30

[Цитировать]

Перси Джексон и Море чудовищ / Percy Jackson: Sea of Monsters- Страна: США
Жанр: фэнтези, приключения, семейный
Год выпуска: 2013
Продолжительность: 01:46:30
Перевод: Профессиональный (дублированный) Line
Cубтитры: нет-Режиссер: Тор Фройденталь / Thor Freudenthal
В ролях: Логан Лерман, Александра Даддарио, Дуглас Смит, Ливэн Рамбин, Брэндон Т. Джексон, Джейк Эйбел, Энтони Хэд, Стэнли Туччи, Коннор Крэш Данн, Палома Квиатковски.
Описание: В сюжете фэнтезийного фильма «Перси Джексон и Море чудовищ» речь пойдет о том, что лучший друг Перси Джексона сатир Гроувер угодил в ловушку самого циклопа Полифема и в результате оказался похищенным. Однако вскоре Перси узнает и еще об одной беде, которая грозит уже всему Лагерю полукровок. Дело в том, что священное дерево Талии, которое защищало лагерь от вторжения всевозможных мифических чудовищ, было кем-то отравлено, а это говорит о том, что вскоре этой защиты не будет, и полукровки не смогут сдерживать натиск врага. Но Перси все же удается узнать, что дерево Талии можно исцелить, но для этого нужно Золотое Руно, которое спрятано на острове того же циклопа Полифема, который и похитил сатира Гроувера. Перси, не теряя времени даром, отправляется на этот остров вместе со своими соратниками. Но чтобы попасть на остров Полифема Джексону и его друзьям предстоит опаснейшее путешествие, ведь им нужно будет не только переплыть бурное Море Чудовищ, но и сразиться с такими мифическими существами, как Сциллой и Харибдой, не поддаться сладкому пению сирен, а так же ускользнуть от чар коварной Цирцеи.-Автор рипа: Scarabey
Качество видео: WEB-DLRip (исходник WEB-DLRip 720p)
Формат видео: AVI | Sample
Видео: 688x288 (2.39:1), 23.976 fps, XviD build 73 ~843 kbps avg, 0.18 bit/pixel
Аудио: 48 kHz, MPEG Layer 3, 2 ch, ~128.00 kbps avg (чистый звук)

Скриншоты

MediaInfo

Format : AVI
Format/Info : Audio Video Interleave
File size : 747 MiB
Duration : 1h 46mn
Overall bit rate : 981 Kbps
Writing application : VirtualDubMod 1.5.10.3 | (build 2550/release)
Writing library : VirtualDubMod build 2550/release
Video
ID : 0
Format : MPEG-4 Visual
Format profile : Advanced Simple@L5
Format settings, BVOP : Yes
Format settings, QPel : No
Format settings, GMC : No warppoints
Format settings, Matrix : Custom
Codec ID : XVID
Codec ID/Hint : XviD
Duration : 1h 46mn
Bit rate : 844 Kbps
Width : 688 pixels
Height : 288 pixels
Display aspect ratio : 2.35:1
Frame rate : 23.976 fps
Color space : YUV
Chroma subsampling : 4:2:0
Bit depth : 8 bits
Scan type : Progressive
Bits/(Pixel*Frame) : 0.178
Stream size : 643 MiB (86%)
Writing library : XviD 73
Audio
ID : 1
Format : MPEG Audio
Format version : Version 1
Format profile : Layer 3
Codec ID : 55
Codec ID/Hint : MP3
Duration : 1h 46mn
Bit rate mode : Constant
Bit rate : 128 Kbps
Channel(s) : 2 channels
Sampling rate : 48.0 KHz
Stream size : 97.5 MiB (13%)
Alignment : Aligned on interleaves
Interleave, duration : 42 ms (1.00 video frame)
Interleave, preload duration : 504 ms
Writing library : LAME3.99r
Encoding settings : -m s -V 4 -q 2 -lowpass 17 -b 128
Скачать

Скачать торрент!

Как скачивать? · Что такое торрент? · Рейтинг и ограничения

Сайт не распространяет и не хранит электронные версии произведений, а лишь предоставляет доступ к создаваемому пользователями каталогу ссылок на торрент-файлы, которые содержат только списки хеш-сумм

[Профиль] [ЛС]
Показать сообщения:    
Ответить на тему

Текущее время: Сегодня 18:25

Часовой пояс: GMT + 4



Вы не можете начинать темы
Вы не можете отвечать на сообщения
Вы не можете редактировать свои сообщения
Вы не можете удалять свои сообщения
Вы не можете голосовать в опросах
Вы не можете прикреплять файлы к сообщениям
Вы не можете скачивать файлы