ВАЛЛ-И / WALL·E (Эндрю Стэнтон / Andrew Stanton) [2008, США, фантастика, приключения, семейный, BDRip] [Локализованный видеоряд] Dub + MVO + AVO (Сербин) + Dub (Ukr) + Original (Eng) + Sub (Rus, Ukr, Eng)

Ответить на тему
 
Автор Сообщение

user ®

Стаж: 13 лет

Сообщений: 15041

Пост Пост: #1 от 16-Ноя-2013 11:25

[Цитировать]

ВАЛЛ-ИWALL·E Год выпуска: 2008
Страна: США
Жанр: фантастика, приключения, семейный
Продолжительность: 01:38:42
Перевод 1: профессиональный полное дублирование Blu-ray CEE
Перевод 2: профессиональный многоголосый, закадровый С.Р.И. (отдельно)
Перевод 3: авторский одноголосый, закадровый Ю. Сербин (отдельно)
Перевод 4: профессиональный полное дублирование украинский, Blu-ray CEE (отдельно)
Оригинал: английский (отдельно)
Cубтитры: русские, украинские, английские внешние, softsub (SRT)-Режиссёр: Эндрю Стэнтон / Andrew Stanton-Роли озвучивали:
Бен Бертт (Михаил Хрусталев), Элисса Найт (Марианна Мокшина), Джефф Гарлин (Сергей Русскин), Фред Уиллард (Марк Макаренков), Джон Ратценбергер (Михаил Щетинин), Кэти Нэджими (Людмила Безуглая), Сигурни Уивер (Елена Шульман), MacInTalk (Станислав Концевич), Ники МакЭлрой, Гаррет Палмер, Кай Стил Смит, Лори Алан, Боб Берген, Джон Циган, Пит Доктер, Пол Айдинг-Описание:
Робот ВАЛЛ·И из года в год прилежно трудится на опустевшей Земле, очищая нашу планету от гор мусора, которые оставили после себя улетевшие в космос люди. Он и не представляет, что совсем скоро произойдут невероятные события, благодаря которым он встретит друзей, поднимется к звездам и даже сумеет изменить к лучшему своих бывших хозяев, совсем позабывших родную Землю.-
  • Идея создать мультфильм о роботе ВАЛЛ·И появилась на студии Pixar в далёком 1994 году. От идеи до премьеры фильма прошло 14 лет.
  • Образец для рук роботов-уборщиков был найден в ручках туалетных кабинок студии Pixar.
  • Имя «ВАЛЛ·И» расшифровывается как — Вселенский Аннигилятор Ландшафтный Легкий — Интеллектуальный.
  • Большинство роботов озвучено Беном Берттом с помощью созданных им самим механических звуков.
  • Это первый фильм Pixar с использованием реальной игры актеров.
  • ВАЛЛ·И собирает многочисленные предметы из 60х-80х годов, в том числе видеокассету с фильмом «Хелло, Долли!» (1969), Кубик Рубика, и даже Atari 2600 с игрой Pong. Несмотря на то, что действие фильма происходит спустя 800 лет, как эти предметы были созданы, они все ещё находятся в рабочем состоянии.
  • Последний кусок мусора, который отбрасывает ВАЛЛ·И в то время, когда покидает Землю, это первый искусственный спутник Земли, запущенный в СССР.
  • Финальные титры содержат не только картины в стиле многих древних культур, но и имитируют конкретных исполнителей, таких, как Винсент Ван Гог, Жорж-Пьер Сера, и Пьер-Огюст Ренуар.
  • Сцена, где капитан сражается с бортовым компьютером под музыку Штрауса, это ссылка на фильм «Космическая одиссея 2001»(1968).
  • Разработкой Евы занимался Джонатан Айв, дизайнер, подаривший миру iPod, iMac, iPhone. После зарядки солнечных батарей Валл-и издает звук, такой же звук издают компьютеры Apple при загрузке.
  • Фильм посвящается Джастину Райту, 27 летнему аниматору Pixar, который умер от сердечного приступа.

-

Награды

Награды:
Оскар, 2009 год
Победитель: Лучший анимационный фильм
Номинации: Лучший сценарий, Лучший звук, Лучший монтаж звука, Лучшая песня — «Down to Earth», Лучший саундтрек
Золотой глобус, 2009 год
Победитель: Лучший анимационный фильм
Номинации: Лучшая песня — «Down to Earth»
Британская академия, 2009 год
Победитель: Лучший анимационный фильм
Номинации: Лучший звук, Лучший саундтрек
Сатурн, 2009 год
Победитель: Лучший анимационный фильм
Номинации: Лучший режиссер (Эндрю Стэнтон)
-IMDB: 8.04/10 (438 625 votes) Тор 250: 64
Кинопоиск: 8.509 (162 796) Тор 250: 38--Сэмпл--Качество видео: BDRip исходник Blu-ray disc 1080p/HDClub
Формат видео: AVI
Видео кодек: XviD
Аудио кодек: АС3
Видео: 720x304 (2.37:1), 23.976 fps, XviD, ~1656 kbps avg, 0.32 bit/pixel
Аудио 1: 48 kHz, AC3 Dolby Digital, 3/2 (L,C,R,l,r) + LFE ch, ~448.00 kbps avg дубляж
Аудио 2: 48 kHz, AC3 Dolby Digital, 3/2 (L,C,R,l,r) + LFE ch, ~448.00 kbps avg многоголосый (отдельно)
Аудио 3: 48 kHz, AC3 Dolby Digital, 3/2 (L,C,R,l,r) + LFE ch, ~448.00 kbps avg Ю. Сербин (отдельно)
Аудио 4: 48 kHz, AC3 Dolby Digital, 3/2 (L,C,R,l,r) + LFE ch, ~384.00 kbps avg украинский дубляж (отдельно)
Аудио 5: 48 kHz, AC3 Dolby Digital, 3/2 (L,C,R,l,r) + LFE ch, ~448.00 kbps avg оригинал (отдельно)

MI

General
Complete name : D:\Wall-E.2008.BDRip\Wall-E.2008.BDRip.avi
Format : AVI
Format/Info : Audio Video Interleave
File size : 1.45 GiB
Duration : 1h 38mn
Overall bit rate : 2 108 Kbps
Writing application : VirtualDubMod 1.5.10.3 (build 2550/release)
Writing library : VirtualDubMod build 2550/release
Video
ID : 0
Format : MPEG-4 Visual
Format profile : Advanced Simple@L5
Format settings, BVOP : 1
Format settings, QPel : No
Format settings, GMC : No warppoints
Format settings, Matrix : Custom
Codec ID : XVID
Codec ID/Hint : XviD
Duration : 1h 38mn
Bit rate : 1 657 Kbps
Width : 720 pixels
Height : 304 pixels
Display aspect ratio : 2.35:1
Frame rate : 23.976 fps
Color space : YUV
Chroma subsampling : 4:2:0
Bit depth : 8 bits
Scan type : Progressive
Compression mode : Lossy
Bits/(Pixel*Frame) : 0.316
Stream size : 1.14 GiB (79%)
Writing library : XviD 64
Audio
ID : 1
Format : AC-3
Format/Info : Audio Coding 3
Mode extension : CM (complete main)
Codec ID : 2000
Duration : 1h 37mn
Bit rate mode : Constant
Bit rate : 448 Kbps
Channel(s) : 6 channels
Channel positions : Front: L C R, Side: L R, LFE
Sampling rate : 48.0 KHz
Bit depth : 16 bits
Compression mode : Lossy
Stream size : 312 MiB (21%)
Alignment : Split accross interleaves
Interleave, duration : 42 ms (1.01 video frame)
Interleave, preload duration : 500 ms

Скриншоты



Размер файла без отдельных дополнительных дорог 1.46 ГБ
Скачать

Скачать торрент! ВАЛЛ-И / WALL·E (Эндрю Стэнтон / Andrew Stanton) [2008, США, фантастика, приключения, семейный, BDRip] [Локализованный видеоряд] Dub + MVO + AVO (Сербин) + Dub (Ukr) + Original (Eng) + Sub (Rus, Ukr, Eng)

Как скачивать? · Что такое торрент? · Рейтинг и ограничения

Сайт не распространяет и не хранит электронные версии произведений, а лишь предоставляет доступ к создаваемому пользователями каталогу ссылок на торрент-файлы, которые содержат только списки хеш-сумм

[Профиль] [ЛС]
Показать сообщения:    
Ответить на тему

Текущее время: Сегодня 10:48

Часовой пояс: GMT + 4



Вы не можете начинать темы
Вы не можете отвечать на сообщения
Вы не можете редактировать свои сообщения
Вы не можете удалять свои сообщения
Вы не можете голосовать в опросах
Вы не можете прикреплять файлы к сообщениям
Вы не можете скачивать файлы