Дело Курта Клаузевица (Глеб Панфилов) [1964, драма, TVRip]

Ответить на тему
 
Автор Сообщение

user ®

Стаж: 7 лет 7 месяцев

Сообщений: 20008

Пост Пост: #1 от 16-Ноя-2013 11:25

[Цитировать]

Дело Курта Клаузевица
Жанр: драма
Год выпуска: 1964
Продолжительность: 00:21:31
Режиссёр: Глеб Панфилов
В ролях: Анатолий Солоницын, Р. Сергеев, Валентин Кадочников, М. Сухоруков
Описание: В освобожденном поселке в помещении детского дома находят дело немецкого солдата, который пожалел советских солдат и был приговорен к смертной казни.
Качество видео: TVRip
Формат видео: AVI
Видео: XviD 617 kbps 640x480 25.000fps
Аудио: MP3 96kbps 1ch 48000khz

MediaInfo

General
Complete name : C:\Documents and Settings\User\Мои документы\Дело Курта Клаузевица.avi
Format : AVI
Format/Info : Audio Video Interleave
File size : 111 MiB
Duration : 21mn 31s
Overall bit rate : 722 Kbps
Writing application : VirtualDubMod 1.5.10.3 | www.virtualdub-fr.org || (build 2550/release)
Writing library : VirtualDubMod build 2550/release
Video
ID : 0
Format : MPEG-4 Visual
Format profile : Advanced Simple@L5
Format settings, BVOP : 1
Format settings, QPel : No
Format settings, GMC : No warppoints
Format settings, Matrix : Default (H.263)
Codec ID : XVID
Codec ID/Hint : XviD
Duration : 21mn 31s
Bit rate : 617 Kbps
Width : 640 pixels
Height : 480 pixels
Display aspect ratio : 4:3
Frame rate : 25.000 fps
Color space : YUV
Chroma subsampling : 4:2:0
Bit depth : 8 bits
Scan type : Progressive
Compression mode : Lossy
Bits/(Pixel*Frame) : 0.080
Stream size : 94.9 MiB (85%)
Writing library : XviD 1.2.1 (UTC 2008-12-04)
Audio
ID : 1
Format : MPEG Audio
Format version : Version 1
Format profile : Layer 3
Codec ID : 55
Codec ID/Hint : MP3
Duration : 21mn 31s
Bit rate mode : Constant
Bit rate : 96.0 Kbps
Channel count : 1 channel
Sampling rate : 48.0 KHz
Compression mode : Lossy
Stream size : 14.8 MiB (13%)
Alignment : Aligned on interleaves
Interleave, duration : 40 ms (1.00 video frame)
Interleave, preload duration : 504 ms
Writing library : LAME3.99r
Encoding settings : -m m -V 4 -q 5 -lowpass 20.5 -b 96

Скриншот c названием фильма

Скриншоты

Скачать

Скачать торрент!

Как скачивать? · Что такое торрент? · Рейтинг и ограничения

Сайт не распространяет и не хранит электронные версии произведений, а лишь предоставляет доступ к создаваемому пользователями каталогу ссылок на торрент-файлы, которые содержат только списки хеш-сумм

[Профиль] [ЛС]
Показать сообщения:    
Ответить на тему

Текущее время: Сегодня 15:55

Часовой пояс: GMT + 4



Вы не можете начинать темы
Вы не можете отвечать на сообщения
Вы не можете редактировать свои сообщения
Вы не можете удалять свои сообщения
Вы не можете голосовать в опросах
Вы не можете прикреплять файлы к сообщениям
Вы не можете скачивать файлы