Перси Джексон и Море чудовищ / Percy Jackson: Sea of Monsters (Тор Фройденталь / Thor Freudenthal) [2013, США, фэнтези, приключения, семейный, WEB-DLRip] Dub

Ответить на тему
 
Автор Сообщение

user ®

Стаж: 7 лет 7 месяцев

Сообщений: 20008

Пост Пост: #1 от 16-Ноя-2013 08:15

[Цитировать]

Перси Джексон и Море чудовищ / Percy Jackson: Sea of Monsters
Страна: США
Жанр: фэнтези, приключения, семейный
Год выпуска: 2013
Продолжительность: 01:46:30
Перевод: Профессиональный (дублированный) [Чистый звук]
Cубтитры: нет
Оригинальная аудиодорожка: нет
Режиссер: Тор Фройденталь / Thor Freudenthal
В ролях: Логан Лерман, Александра Даддарио, Дуглас Смит, Ливэн Рамбин, Брэндон Т. Джексон, Джейк Эйбел, Энтони Хэд, Стэнли Туччи, Коннор Крэш Данн, Палома Квиатковски
Описание: Перси отправляется на поиски своего друга, сатира Гроувера, попавшего в ловушку к циклопу Полифему. На кону стоит не только сатир, но и весь «Лагерь полукровок»: кто-то отравил священное дерево Талии, а это значит, что защита лагеря вот-вот падет и уже ничто не сможет удержать чудовищ от вторжения. Исцелить дерево способно только мифическое Золотое руно, спрятанное на острове Полифема — и, чтобы добраться до него, необходимо переплыть Море Чудовищ и сразиться с его обитателями — Сциллой и Харибдой, сладкоголосыми сиренами и коварной волшебницей Цирцеей.
Доп. информация: IMDB:6.2
Сэмпл: http://multi-up.com/923766
Качество видео: WEB-DLRip
Формат видео: AVI
Видео: XviD build 50,720x304,23.976 fps,1976 kbps avg,0.38 bit/pixel
Аудио: AC3 Dolby Digital,48 kHz,3/2 (L,C,R,l,r) + LFE ch,384 kbps
Аудио 2: AC3 Dolby Digital,48 kHz,2/0 (L,R) ch,384 kbps

MediaInfo

Общее
Полное имя : C:\Users\PC\Downloads\Persi.Djekson.i.more.chudovish.2013.D.WEBDLRip.2100MB.avi
Формат : AVI
Формат/Информация : Audio Video Interleave
Размер файла : 2,05 Гбайт
Продолжительность : 1 ч. 46 м.
Общий поток : 2758 Кбит/сек
Программа кодирования : VirtualDubMod 1.5.10.2 (build 2540/release)
Видео
Идентификатор : 0
Формат : MPEG-4 Visual
Профиль формата : Advanced Simple@L5
Параметр BVOP формата : 2
Параметр QPel формата : Нет
Параметр GMC формата : Без точки перехода
Параметр матрицы формата : Выборочная
Идентификатор кодека : XVID
Идентификатор кодека/Подсказка : XviD
Продолжительность : 1 ч. 46 м.
Битрейт : 1978 Кбит/сек
Ширина : 720 пикселей
Высота : 304 пикселя
Соотношение сторон : 2,35:1
Частота кадров : 23,976 кадра/сек
Цветовое пространство : YUV
Субдискретизация насыщенности : 4:2:0
Битовая глубина : 8 бит
Тип развёртки : Прогрессивная
Метод сжатия : С потерями
Бит/(Пиксели*Кадры) : 0.377
Размер потока : 1,47 Гбайт (72%)
Библиотека кодирования : XviD 1.2.1 (UTC 2008-12-04)
Аудио #1
Идентификатор : 1
Формат : AC-3
Формат/Информация : Audio Coding 3
Расширение режима : CM (complete main)
Параметр Endianness формата : Big
Идентификатор кодека : 2000
Продолжительность : 1 ч. 46 м.
Вид битрейта : Постоянный
Битрейт : 384 Кбит/сек
Каналы : 6 каналов
Расположение каналов : Front: L C R, Side: L R, LFE
Частота : 48,0 КГц
Битовая глубина : 16 бит
Метод сжатия : С потерями
Размер потока : 293 Мбайт (14%)
Выравнивание : Разделение по промежуткам
Продолжительность промежутка : 42 мс. (1,00 видеокадр)
Время предзагрузки промежутка : 500 мс.
Аудио #2
Идентификатор : 2
Формат : AC-3
Формат/Информация : Audio Coding 3
Расширение режима : CM (complete main)
Параметр Endianness формата : Big
Идентификатор кодека : 2000
Продолжительность : 1 ч. 46 м.
Вид битрейта : Постоянный
Битрейт : 384 Кбит/сек
Каналы : 2 канала
Расположение каналов : Front: L R
Частота : 48,0 КГц
Битовая глубина : 16 бит
Метод сжатия : С потерями
Размер потока : 292 Мбайт (14%)
Выравнивание : Разделение по промежуткам
Продолжительность промежутка : 42 мс. (1,00 видеокадр)
Время предзагрузки промежутка : 500 мс.

Скриншот c названием фильма

Скриншоты

Скачать

Скачать торрент!

Как скачивать? · Что такое торрент? · Рейтинг и ограничения

Сайт не распространяет и не хранит электронные версии произведений, а лишь предоставляет доступ к создаваемому пользователями каталогу ссылок на торрент-файлы, которые содержат только списки хеш-сумм

[Профиль] [ЛС]
Показать сообщения:    
Ответить на тему

Текущее время: Сегодня 06:04

Часовой пояс: GMT + 4



Вы не можете начинать темы
Вы не можете отвечать на сообщения
Вы не можете редактировать свои сообщения
Вы не можете удалять свои сообщения
Вы не можете голосовать в опросах
Вы не можете прикреплять файлы к сообщениям
Вы не можете скачивать файлы