Философы: Урок выживания / The Philosophers (Джон Хаддлс / John Huddles) [2013, США, Индонезия, Фантастика, триллер, DVDRip] Dub [Лицензия]

Ответить на тему
 
Автор Сообщение

user ®

Стаж: 7 лет 7 месяцев

Сообщений: 20008

Пост Пост: #1 от 16-Ноя-2013 05:05

[Цитировать]

Философы: Урок выживания / The Philosophers- Страна: США, Индонезия
Студия: An Olive Branch Productions, SCTV
Жанр: Фантастика, триллер
Год выпуска: 2013
Продолжительность: 01:42:20
Перевод: Профессиональный (дублированный) [Лицензия]
Cубтитры: Отсутствуют
Оригинальная аудиодорожка: Отсутствует-Режиссер: Джон Хаддлс / John Huddles
Продюсер: Джон Хаддлс, Сибилл Луи, Джордж Закк-В ролях: Софи Лоу, Джеймс Д’Арси, Риз Уэйкфилд, Дэрил Сабара, Бонни Райт, Кэти Финдлей, Фредди Строма, Хоуп Олэйд Уилсон, Абхи Синха, Джейкоб Артист-Описание: В международной школе в Джакарте таинственный учитель философии в качестве выпускного экзамена предлагает 20 студентам провести эксперимент. Этот опыт будет самым экстремальным, с которым они когда-либо сталкивались.
Используя только силу логики, студенты должны выбрать, кто из них будет достоин получить место в подземном бункере - единственном месте, где можно спастись от приближающейся ядерной катастрофы. Бункер рассчитан на десять человек, а значит, тех, кого не выбирают, ожидает жестокая смерть. Реальность классной комнаты эффектно перетекает в воображаемый, но в то же время пугающий мир надвигающегося апокалипсиса...-Дата мировой премьеры: 21 августа 2013
Дата российской премьеры: 10 октября 2013, «Bazelevs Distribution», «All Media»
Дата выхода DVD релиза: 12 ноября 2013, «Флагман-Трейд»- -Качество видео: DVDRip
Формат видео: AVI
Видео: 720x304 (2.35:1), 25 fps, XviD build 50, 1578 kbps avg, 0.29 bit/pixel
Аудио: 48 kHz, AC3 Dolby Digital, 3/2 (L,C,R,l,r) + LFE ch, 448 kbps-

MediaInfo

General
Complete name                            : C:\Новинки\Filosofy.Urok.vyjivaniya.2013.D.DVDRip.1400MB.avi
Format                                   : AVI
Format/Info                              : Audio Video Interleave
File size                                : 1.46 GiB
Duration                                 : 1h 42mn
Overall bit rate                         : 2 036 Kbps
Movie name                               : Filosofy.Urok.vyjivaniya.2013.D.DVDRip.1400MB
Genre                                    : Thriller
Writing application                      : VirtualDubMod 1.5.10.2 (build 2540/release)
Original source form/Name                : Movie
Video
ID                                       : 0
Format                                   : MPEG-4 Visual
Format profile                           : Advanced Simple@L5
Format settings, BVOP                    : 2
Format settings, QPel                    : No
Format settings, GMC                     : No warppoints
Format settings, Matrix                  : Custom
Codec ID                                 : XVID
Codec ID/Hint                            : XviD
Duration                                 : 1h 42mn
Bit rate                                 : 1 579 Kbps
Width                                    : 720 pixels
Height                                   : 304 pixels
Display aspect ratio                     : 2.35:1
Frame rate                               : 25.000 fps
Color space                              : YUV
Chroma subsampling                       : 4:2:0
Bit depth                                : 8 bits
Scan type                                : Progressive
Compression mode                         : Lossy
Bits/(Pixel*Frame)                       : 0.289
Stream size                              : 1.13 GiB (78%)
Writing library                          : XviD 1.2.1 (UTC 2008-12-04)
Audio
ID                                       : 1
Format                                   : AC-3
Format/Info                              : Audio Coding 3
Mode extension                           : CM (complete main)
Format settings, Endianness              : Big
Codec ID                                 : 2000
Duration                                 : 1h 42mn
Bit rate mode                            : Constant
Bit rate                                 : 448 Kbps
Channel count                            : 6 channels
Channel positions                        : Front: L C R, Side: L R, LFE
Sampling rate                            : 48.0 KHz
Bit depth                                : 16 bits
Compression mode                         : Lossy
Stream size                              : 328 MiB (22%)
Alignment                                : Split accross interleaves
Interleave, duration                     : 40 ms (1.00 video frame)
Interleave, preload duration             : 500 ms

Скриншот с названием фильма

Скриншоты

-
Скачать

Скачать торрент!

Как скачивать? · Что такое торрент? · Рейтинг и ограничения

Сайт не распространяет и не хранит электронные версии произведений, а лишь предоставляет доступ к создаваемому пользователями каталогу ссылок на торрент-файлы, которые содержат только списки хеш-сумм

[Профиль] [ЛС]
Показать сообщения:    
Ответить на тему

Текущее время: Сегодня 22:41

Часовой пояс: GMT + 4



Вы не можете начинать темы
Вы не можете отвечать на сообщения
Вы не можете редактировать свои сообщения
Вы не можете удалять свои сообщения
Вы не можете голосовать в опросах
Вы не можете прикреплять файлы к сообщениям
Вы не можете скачивать файлы