Лекция о половом созревании / Metta Meta Gakido Koza (Мио Езаки / Mio Ezaki) [1971, Япония, эротика, комедия, VHSRip] VO (iDimo)

Ответить на тему
 
Автор Сообщение

user ®

Стаж: 11 лет

Сообщений: 15151

Пост Пост: #1 от 15-Ноя-2013 23:40

[Цитировать]

Лекция о половом созревании / Metta Meta Gakido Koza
Страна: Япония
Жанр: комедия
Год выпуска: 1971
Продолжительность: 01:24:08
Перевод: Одноголосый закадровый iDimo
Cубтитры: нет
Режиссер: Мио Езаки / Mio Ezaki
В ролях: Шинсуке Минами, Джо Шисшидо
Описание: История о переходном возрасте, когда главный герой не слушается родителей и ищет различными способами любые возможностия для познания женщины и взрослой жизни.
Сэмпл:YandexDisk
Качество видео: VHSRip
Формат видео: AVI
Видео: XVID, 624x448, 4:3 ,23.976 fps, 1024 kbps
Аудио: MP3, 44.1 KHz, 320 Kbps, 2 channels

MediaInfo

General
Complete name : P:\Озвученно\Готовые проекты для загрузки\Metta Meta Gakido Koza rus.avi
Format : AVI
Format/Info : Audio Video Interleave
File size : 814 MiB
Duration : 1h 24mn
Overall bit rate : 1 352 Kbps
Writing application : VirtualDubMod 1.5.10.2 (build 2540/release)
Writing library : VirtualDubMod build 2540/release
Video
ID : 0
Format : MPEG-4 Visual
Format profile : Advanced Simple@L5
Format settings, BVOP : Yes
Format settings, QPel : No
Format settings, GMC : No warppoints
Format settings, Matrix : Default (MPEG)
Codec ID : XVID
Codec ID/Hint : XviD
Duration : 1h 24mn
Bit rate : 1 023 Kbps
Width : 624 pixels
Height : 448 pixels
Display aspect ratio : 1.393
Frame rate : 23.976 fps
Color space : YUV
Chroma subsampling : 4:2:0
Bit depth : 8 bits
Scan type : Progressive
Compression mode : Lossy
Bits/(Pixel*Frame) : 0.153
Stream size : 615 MiB (76%)
Writing library : XviD 1.2.0.dev47 (UTC 2006-11-01)
Audio
ID : 1
Format : MPEG Audio
Format version : Version 1
Format profile : Layer 3
Mode : Joint stereo
Codec ID : 55
Codec ID/Hint : MP3
Duration : 1h 24mn
Bit rate mode : Constant
Bit rate : 320 Kbps
Channel count : 2 channels
Sampling rate : 44.1 KHz
Compression mode : Lossy
Stream size : 193 MiB (24%)
Alignment : Split accross interleaves
Interleave, duration : 42 ms (1.00 video frame)
Interleave, preload duration : 500 ms

Скриншоты

Скачать

Скачать торрент! Лекция о половом созревании / Metta Meta Gakido Koza (Мио Езаки / Mio Ezaki) [1971, Япония, эротика, комедия, VHSRip] VO (iDimo)

Как скачивать? · Что такое торрент? · Рейтинг и ограничения

Сайт не распространяет и не хранит электронные версии произведений, а лишь предоставляет доступ к создаваемому пользователями каталогу ссылок на торрент-файлы, которые содержат только списки хеш-сумм

[Профиль] [ЛС]
Показать сообщения:    
Ответить на тему

Текущее время: Сегодня 16:05

Часовой пояс: GMT + 4



Вы не можете начинать темы
Вы не можете отвечать на сообщения
Вы не можете редактировать свои сообщения
Вы не можете удалять свои сообщения
Вы не можете голосовать в опросах
Вы не можете прикреплять файлы к сообщениям
Вы не можете скачивать файлы